<?xml version="1.0" standalone="no"?>
<!DOCTYPE svg PUBLIC "-//W3C//DTD SVG 1.1//EN" "http://www.w3.org/Graphics/SVG/1.1/DTD/svg11.dtd" >
<svg>
<metadata>
Created by FontForge 20110222 at Mon Sep  8 10:54:18 2014
 By deploy user
</metadata>
<defs>
<font id="KozGoPro-Heavy-AlphaNum" horiz-adv-x="1000" vert-adv-y="1000" >
  <font-face 
    font-family="KozGoPro-Heavy-AlphaNum"
    font-weight="800"
    font-stretch="normal"
    units-per-em="1000"
    panose-1="2 0 9 3 0 0 0 0 0 0"
    ascent="800"
    descent="-200"
    bbox="7 -96 985 858"
    underline-thickness="50"
    underline-position="-100"
  />
<missing-glyph horiz-adv-x="364" 
d="M33 0v666h265v-666h-265zM66 33h199v600h-199v-600z" />
    <glyph glyph-name=".notdef" horiz-adv-x="364" 
d="M33 0v666h265v-666h-265zM66 33h199v600h-199v-600z" />
    <glyph glyph-name=".null" horiz-adv-x="0" vert-adv-y="0" 
 />
    <glyph glyph-name="nonmarkingreturn" horiz-adv-x="333" 
 />
    <glyph glyph-name="Japan1.7555" 
d="M975 380q0 -97 -38 -185t-102 -151.5t-151.5 -101t-183.5 -37.5q-196 0 -335.5 139.5t-139.5 335.5t139.5 335.5t335.5 139.5t335.5 -139.5t139.5 -335.5zM500 815q-181 0 -308 -128t-127 -307q0 -180 127.5 -307.5t307.5 -127.5t307.5 127.5t127.5 307.5t-127.5 307.5
t-307.5 127.5zM447 120v390h-1l-102 -46l-23 111l147 65h122v-520h-143z" />
    <glyph glyph-name="Japan1.7556" 
d="M975 380q0 -97 -38 -185t-102 -151.5t-151.5 -101t-183.5 -37.5q-196 0 -335.5 139.5t-139.5 335.5t139.5 335.5t335.5 139.5t335.5 -139.5t139.5 -335.5zM500 815q-181 0 -308 -128t-127 -307q0 -180 127.5 -307.5t307.5 -127.5t307.5 127.5t127.5 307.5t-127.5 307.5
t-307.5 127.5zM688 120h-376v91l71 65q81 74 115 115.5t35 77.5q0 28 -19 44.5t-55 16.5q-49 0 -106 -39l-37 107q70 50 173 50q91 0 140.5 -45.5t49.5 -121.5q0 -106 -123 -196l-55 -41v-2h187v-122z" />
    <glyph glyph-name="Japan1.7557" 
d="M975 380q0 -97 -38 -185t-102 -151.5t-151.5 -101t-183.5 -37.5q-196 0 -335.5 139.5t-139.5 335.5t139.5 335.5t335.5 139.5t335.5 -139.5t139.5 -335.5zM500 815q-181 0 -308 -128t-127 -307q0 -180 127.5 -307.5t307.5 -127.5t307.5 127.5t127.5 307.5t-127.5 307.5
t-307.5 127.5zM312 146l26 112q55 -30 116 -30q81 0 81 52q0 29 -26 44.5t-63 15.5h-48v105h45q32 0 55.5 10.5t23.5 34.5q0 42 -66 42q-52 0 -104 -27l-26 106q62 37 165 37q83 0 131.5 -37.5t48.5 -94.5q0 -86 -91 -119v-1q47 -10 77 -43.5t30 -80.5q0 -71 -59.5 -115.5
t-159.5 -44.5q-97 0 -156 34z" />
    <glyph glyph-name="Japan1.7558" 
d="M975 380q0 -97 -38 -185t-102 -151.5t-151.5 -101t-183.5 -37.5q-196 0 -335.5 139.5t-139.5 335.5t139.5 335.5t335.5 139.5t335.5 -139.5t139.5 -335.5zM500 815q-181 0 -308 -128t-127 -307q0 -180 127.5 -307.5t307.5 -127.5t307.5 127.5t127.5 307.5t-127.5 307.5
t-307.5 127.5zM640 120h-137v114h-217v96l175 310h179v-296h55v-110h-55v-114zM405 344h98v82q0 62 3 113h-2q-18 -39 -57 -114l-42 -79v-2z" />
    <glyph glyph-name="Japan1.7559" 
d="M975 380q0 -97 -38 -185t-102 -151.5t-151.5 -101t-183.5 -37.5q-196 0 -335.5 139.5t-139.5 335.5t139.5 335.5t335.5 139.5t335.5 -139.5t139.5 -335.5zM500 815q-181 0 -308 -128t-127 -307q0 -180 127.5 -307.5t307.5 -127.5t307.5 127.5t127.5 307.5t-127.5 307.5
t-307.5 127.5zM664 640v-122h-193l-6 -53q9 2 26 2q88 0 143 -42q55 -43 55 -128q0 -76 -62.5 -130.5t-170.5 -54.5q-85 0 -145 26l23 111q55 -23 113 -23q38 0 64.5 15t26.5 47q0 72 -139 72q-36 0 -63 -4l32 284h296z" />
    <glyph glyph-name="Japan1.7560" 
d="M975 380q0 -97 -38 -185t-102 -151.5t-151.5 -101t-183.5 -37.5q-196 0 -335.5 139.5t-139.5 335.5t139.5 335.5t335.5 139.5t335.5 -139.5t139.5 -335.5zM500 815q-181 0 -308 -128t-127 -307q0 -180 127.5 -307.5t307.5 -127.5t307.5 127.5t127.5 307.5t-127.5 307.5
t-307.5 127.5zM646 647v-113q-15 1 -45 -1q-125 -6 -154 -93h3q37 31 97 31q65 0 110.5 -45t45.5 -124t-55 -134.5t-140 -55.5q-104 0 -157.5 65.5t-53.5 162.5q0 125 75 213t224 94h50zM507 208q27 0 41.5 25.5t14.5 63.5q-1 33 -16.5 57.5t-48.5 24.5q-42 0 -58 -38
q-5 -13 -5 -40q0 -3 1 -10.5t5 -22.5t11 -27.5t21.5 -22.5t33.5 -10z" />
    <glyph glyph-name="Japan1.7561" 
d="M975 380q0 -97 -38 -185t-102 -151.5t-151.5 -101t-183.5 -37.5q-196 0 -335.5 139.5t-139.5 335.5t139.5 335.5t335.5 139.5t335.5 -139.5t139.5 -335.5zM500 815q-181 0 -308 -128t-127 -307q0 -180 127.5 -307.5t307.5 -127.5t307.5 127.5t127.5 307.5t-127.5 307.5
t-307.5 127.5zM322 640h375v-92l-199 -428h-156l200 396v2h-220v122z" />
    <glyph glyph-name="Japan1.7562" 
d="M384 385v2q-69 39 -69 112q0 67 53.5 108t135.5 41q89 0 134 -40.5t45 -94.5q0 -74 -70 -111v-2q37 -14 63 -47t26 -80q0 -74 -56 -117.5t-150 -43.5q-96 0 -146.5 43.5t-50.5 103.5q0 87 85 126zM501 560q-28 0 -41 -17t-13 -40q0 -22 18.5 -40t47.5 -28q17 4 30 22
t13 39q0 27 -14 45.5t-41 18.5zM503 200q28 0 44 18.5t16 43.5q0 31 -21 53.5t-52 30.5q-51 -16 -51 -74q1 -29 18.5 -50.5t45.5 -21.5zM975 380q0 -97 -38 -185t-102 -151.5t-151.5 -101t-183.5 -37.5q-196 0 -335.5 139.5t-139.5 335.5t139.5 335.5t335.5 139.5
t335.5 -139.5t139.5 -335.5zM500 815q-181 0 -308 -128t-127 -307q0 -180 127.5 -307.5t307.5 -127.5t307.5 127.5t127.5 307.5t-127.5 307.5t-307.5 127.5z" />
    <glyph glyph-name="Japan1.7563" 
d="M975 380q0 -97 -38 -185t-102 -151.5t-151.5 -101t-183.5 -37.5q-196 0 -335.5 139.5t-139.5 335.5t139.5 335.5t335.5 139.5t335.5 -139.5t139.5 -335.5zM500 815q-181 0 -308 -128t-127 -307q0 -180 127.5 -307.5t307.5 -127.5t307.5 127.5t127.5 307.5t-127.5 307.5
t-307.5 127.5zM354 113v113q15 -1 45 1q128 5 154 93h-3q-37 -31 -97 -31q-65 0 -110.5 45t-45.5 124t55.5 134.5t139.5 55.5q104 0 157.5 -65.5t53.5 -162.5q0 -129 -76 -215t-223 -92h-50zM493 552q-26 0 -40.5 -25.5t-14.5 -63.5q0 -32 15.5 -57t48.5 -25q20 0 36 11
t22 27q5 10 5 40q0 35 -19.5 64t-52.5 29z" />
    <glyph glyph-name="Japan1.7564" 
d="M975 379q0 -97 -38 -185t-102 -151.5t-151.5 -101t-183.5 -37.5q-97 0 -184.5 37.5t-151.5 101.5t-101.5 151.5t-37.5 184.5t37.5 184.5t101.5 151.5t151.5 101.5t184.5 37.5t184.5 -37.5t151.5 -101.5t101.5 -151.5t37.5 -184.5zM500 814q-181 0 -308 -128t-127 -307
q0 -180 127.5 -307.5t307.5 -127.5t307.5 127.5t127.5 307.5t-127.5 307.5t-307.5 127.5zM655 129q-44 0 -76 23t-48 61.5t-23 78.5t-7 84q0 67 14.5 122t50.5 93t90 38q150 0 150 -247q0 -124 -42.5 -188.5t-108.5 -64.5zM656 231q18 0 25 30.5t7 117.5q0 80 -6 114t-25 34
q-13 0 -21.5 -14t-12 -44t-4 -51.5t-0.5 -61.5q0 -69 9 -97t28 -28zM291 135v376h-1l-84 -40l-19 95l116 57h108v-488h-120z" />
    <glyph glyph-name="Japan1.7565" 
d="M975 380q0 -97 -38 -185t-102 -151.5t-151.5 -101t-183.5 -37.5q-196 0 -335.5 139.5t-139.5 335.5t139.5 335.5t335.5 139.5t335.5 -139.5t139.5 -335.5zM500 815q-181 0 -308 -128t-127 -307q0 -180 127.5 -307.5t307.5 -127.5t307.5 127.5t127.5 307.5t-127.5 307.5
t-307.5 127.5zM292 136v376h-2l-83 -40l-20 95l117 57h108v-488h-120zM620 136v376h-1l-84 -40l-19 95l117 57h107v-488h-120z" />
    <glyph glyph-name="Japan1.7566" 
d="M975 380q0 -97 -38 -185t-102 -151.5t-151.5 -101t-183.5 -37.5q-196 0 -335.5 139.5t-139.5 335.5t139.5 335.5t335.5 139.5t335.5 -139.5t139.5 -335.5zM500 815q-181 0 -308 -128t-127 -307q0 -180 127.5 -307.5t307.5 -127.5t307.5 127.5t127.5 307.5t-127.5 307.5
t-307.5 127.5zM292 136v376h-2l-83 -40l-20 95l117 57h108v-488h-120zM785 136h-285v83l53 65q59 71 83.5 111t24.5 79q0 24 -15.5 39.5t-43.5 15.5q-37 0 -74 -23l-19 95q48 29 115 29q83 0 119.5 -43t36.5 -103q0 -62 -31 -111.5t-83 -99.5l-30 -29v-2h149v-106z" />
    <glyph glyph-name="Japan1.7567" 
d="M975 380q0 -97 -38 -185t-102 -151.5t-151.5 -101t-183.5 -37.5q-196 0 -335.5 139.5t-139.5 335.5t139.5 335.5t335.5 139.5t335.5 -139.5t139.5 -335.5zM500 815q-181 0 -308 -128t-127 -307q0 -180 127.5 -307.5t307.5 -127.5t307.5 127.5t127.5 307.5t-127.5 307.5
t-307.5 127.5zM292 136v376h-2l-83 -40l-20 95l117 57h108v-488h-120zM512 151l14 97q32 -19 74 -19q33 0 50.5 16t17.5 40q0 22 -10 36.5t-29 19.5t-31 6.5t-31 1.5v87q88 0 88 50q0 21 -14 33.5t-38 12.5q-33 0 -62 -17l-13 90q40 25 107 25t104 -35.5t37 -85.5
q0 -36 -18.5 -64t-50.5 -43v-1q38 -15 60 -47t22 -75q0 -59 -47 -104t-129 -45q-59 0 -101 21z" />
    <glyph glyph-name="Japan1.7568" 
d="M975 380q0 -97 -38 -185t-102 -151.5t-151.5 -101t-183.5 -37.5q-196 0 -335.5 139.5t-139.5 335.5t139.5 335.5t335.5 139.5t335.5 -139.5t139.5 -335.5zM500 815q-181 0 -308 -128t-127 -307q0 -180 127.5 -307.5t307.5 -127.5t307.5 127.5t127.5 307.5t-127.5 307.5
t-307.5 127.5zM756 134h-106v106h-171v83l160 298h117v-284h46v-97h-46v-106zM575 337h75v82q0 44 4 76h-2q-11 -30 -32 -70l-45 -87v-1zM292 136v376h-2l-83 -40l-20 95l117 57h108v-488h-120z" />
    <glyph glyph-name="Japan1.7569" 
d="M975 380q0 -97 -38 -185t-102 -151.5t-151.5 -101t-183.5 -37.5q-196 0 -335.5 139.5t-139.5 335.5t139.5 335.5t335.5 139.5t335.5 -139.5t139.5 -335.5zM500 815q-181 0 -308 -128t-127 -307q0 -180 127.5 -307.5t307.5 -127.5t307.5 127.5t127.5 307.5t-127.5 307.5
t-307.5 127.5zM291 136v376h-1l-84 -40l-19 95l116 57h108v-488h-120zM772 624v-106h-127l-7 -62q5 -1 13 -1q13 0 30.5 -4.5t43.5 -18t43.5 -46.5t17.5 -80q0 -74 -48.5 -125t-134.5 -51q-60 0 -96 19l16 95q33 -15 71 -15q35 0 53.5 18t18.5 48q0 75 -103 75q-22 0 -33 -1
l25 255h217z" />
    <glyph glyph-name="Japan1.7570" 
d="M975 380q0 -97 -38 -185t-102 -151.5t-151.5 -101t-183.5 -37.5q-196 0 -335.5 139.5t-139.5 335.5t139.5 335.5t335.5 139.5t335.5 -139.5t139.5 -335.5zM500 815q-181 0 -308 -128t-127 -307q0 -180 127.5 -307.5t307.5 -127.5t307.5 127.5t127.5 307.5t-127.5 307.5
t-307.5 127.5zM766 630v-98q-120 0 -143 -108h3q27 34 71 34q51 0 82 -41.5t31 -110.5t-38.5 -122.5t-111.5 -53.5t-116.5 54t-43.5 149q0 118 57 195t153 97q12 2 23 3t20.5 1.5t12.5 0.5zM658 209q14 0 22 7.5t11.5 24.5t4.5 31t1 38q-3 69 -41 69q-14 0 -22.5 -7
t-11.5 -21t-4 -23.5t-1 -26.5q0 -38 10.5 -65t30.5 -27zM291 136v376h-1l-84 -40l-19 95l116 57h108v-488h-120z" />
    <glyph glyph-name="Japan1.7571" 
d="M975 380q0 -97 -38 -185t-102 -151.5t-151.5 -101t-183.5 -37.5q-196 0 -335.5 139.5t-139.5 335.5t139.5 335.5t335.5 139.5t335.5 -139.5t139.5 -335.5zM500 815q-181 0 -308 -128t-127 -307q0 -180 127.5 -307.5t307.5 -127.5t307.5 127.5t127.5 307.5t-127.5 307.5
t-307.5 127.5zM291 136v376h-1l-84 -40l-19 95l116 57h108v-488h-120zM515 624h283v-81l-151 -407h-117l146 380v2h-161v106z" />
    <glyph glyph-name="Japan1.7572" 
d="M567 391v2q-58 36 -58 104q0 61 43.5 97t107.5 36q58 0 98 -33t40 -90q0 -67 -63 -105v-1q34 -16 54 -49t20 -75q0 -70 -46 -108.5t-112 -38.5q-67 0 -110.5 36t-43.5 102q0 82 70 123zM659 559q-41 0 -41 -58q0 -48 49 -70q13 4 21.5 24.5t8.5 41.5q0 62 -38 62z
M655 201h1q45 0 45 72q0 32 -18 55.5t-40 31.5q-36 -25 -36 -80q0 -33 12.5 -56t35.5 -23zM975 380q0 -97 -38 -185t-102 -151.5t-151.5 -101t-183.5 -37.5q-196 0 -335.5 139.5t-139.5 335.5t139.5 335.5t335.5 139.5t335.5 -139.5t139.5 -335.5zM500 815q-181 0 -308 -128
t-127 -307q0 -180 127.5 -307.5t307.5 -127.5t307.5 127.5t127.5 307.5t-127.5 307.5t-307.5 127.5zM291 136v376h-1l-84 -40l-19 95l116 57h108v-488h-120z" />
    <glyph glyph-name="Japan1.7573" 
d="M975 380q0 -97 -38 -185t-102 -151.5t-151.5 -101t-183.5 -37.5q-196 0 -335.5 139.5t-139.5 335.5t139.5 335.5t335.5 139.5t335.5 -139.5t139.5 -335.5zM500 815q-181 0 -308 -128t-127 -307q0 -180 127.5 -307.5t307.5 -127.5t307.5 127.5t127.5 307.5t-127.5 307.5
t-307.5 127.5zM545 130v98q120 0 143 108h-3q-27 -34 -71 -34q-50 0 -81.5 41.5t-31.5 110.5t38.5 122.5t111.5 53.5t116.5 -54.5t43.5 -148.5q0 -123 -59.5 -198t-150.5 -94q-12 -2 -23 -3t-20.5 -1.5t-12.5 -0.5zM653 551q-14 0 -22 -7.5t-11.5 -24.5t-4.5 -31t-1 -38
q3 -69 41 -69q39 0 39 78q0 38 -10.5 65t-30.5 27zM291 136v376h-1l-84 -40l-19 95l116 57h108v-488h-120z" />
    <glyph glyph-name="Japan1.7574" 
d="M975 380q0 -97 -38 -185t-102 -151.5t-151.5 -101t-183.5 -37.5q-196 0 -335.5 139.5t-139.5 335.5t139.5 335.5t335.5 139.5t335.5 -139.5t139.5 -335.5zM500 815q-181 0 -308 -128t-127 -307q0 -180 127.5 -307.5t307.5 -127.5t307.5 127.5t127.5 307.5t-127.5 307.5
t-307.5 127.5zM673 130q-38 0 -67 17.5t-45 43.5t-26.5 61.5t-13.5 65t-3 59.5q0 67 15 122t51 93t90 38q149 0 149 -247q0 -124 -42 -188.5t-108 -64.5zM673 232q18 0 25 30.5t7 117.5q0 80 -6 114t-25 34q-13 0 -21.5 -14t-12 -43t-4 -49t-0.5 -56q0 -75 8.5 -104.5
t28.5 -29.5zM469 136h-264v87l49 69q51 70 72 109t21 77q0 25 -15.5 38.5t-37.5 13.5q-34 0 -65 -17l-14 96q44 21 100 21q46 0 78 -14t46.5 -37.5t20.5 -45.5t6 -46q0 -45 -18 -87t-37.5 -65.5t-55.5 -61.5l-27 -28v-3h141v-106z" />
    <glyph glyph-name="Japan1.7575" 
d="M409 776h182v-776h-182v776z" />
    <glyph glyph-name="Japan1.7576" 
d="M249 776h177v-776h-177v776zM574 776h177v-776h-177v776z" />
    <glyph glyph-name="Japan1.7577" 
d="M162 776h172v-776h-172v776zM414 776h172v-776h-172v776zM666 776h172v-776h-172v776z" />
    <glyph glyph-name="Japan1.7578" 
d="M106 776h172v-776h-172v776zM715 0h-200l-206 776h191l69 -338q18 -89 50 -266h4q19 112 50 264l68 340h187z" />
    <glyph glyph-name="Japan1.7579" 
d="M606 0h-219l-246 776h202l91 -348q37 -143 67 -274h3q29 133 68 272l90 350h197z" />
    <glyph glyph-name="Japan1.7580" 
d="M478 0h-200l-206 776h192l69 -338q17 -88 49 -266h4q22 129 51 264l67 340h187zM722 776h172v-776h-172v776z" />
    <glyph glyph-name="Japan1.7581" 
d="M393 776h324v-776h-162v746l-174 -746h-186l-175 776h173l58 -326q31 -191 41 -257h3q19 133 42 254zM778 0v776h162v-776h-162z" />
    <glyph glyph-name="Japan1.7582" 
d="M343 776h262v-776h-130v669l-138 -669h-163l-154 776h158l47 -326q7 -50 18.5 -140t15.5 -117h3q19 158 34 254zM775 0h-130v776h130v-776zM815 0v776h130v-776h-130z" />
    <glyph glyph-name="Japan1.7583" 
d="M91 776h172v-776h-172v776zM933 0h-197l-68 159q-50 124 -55 137h-2l-50 -136l-62 -160h-192l205 390l-198 386h196l64 -158l49 -127h2q29 81 45 126l59 159h193l-198 -378z" />
    <glyph glyph-name="Japan1.7584" 
d="M852 0h-213l-81 159q-16 31 -38 77t-29 60h-2q-17 -46 -60 -136l-73 -160h-209l232 392l-224 384h212l77 -161q30 -63 58 -129h3q23 63 52 129l73 161h209l-225 -378z" />
    <glyph glyph-name="Japan1.8061" 
d="M419 -14q-83 0 -145 34t-96.5 92t-51 125.5t-16.5 143.5q0 112 32 199t103.5 141.5t175.5 54.5q79 0 139 -31t96.5 -85.5t55 -124t18.5 -152.5q0 -112 -31 -199t-102.5 -142.5t-177.5 -55.5zM307 382v-5q0 -121 30.5 -184t81.5 -63q34 0 58 23.5t35.5 63.5t16 79.5
t4.5 85.5q0 250 -113 250q-53 0 -83 -63.5t-30 -186.5zM872 -11q-43 0 -72 30.5t-29 78.5q0 47 29.5 78t72.5 31q45 0 73.5 -30t28.5 -79q0 -48 -27.5 -78.5t-75.5 -30.5z" />
    <glyph glyph-name="Japan1.8062" 
d="M383 0v578h-3l-168 -75l-48 149l249 110h159v-762h-189zM872 -11q-43 0 -72 30.5t-29 78.5q0 47 29.5 78t72.5 31q45 0 73.5 -30t28.5 -79q0 -48 -27.5 -78.5t-75.5 -30.5z" />
    <glyph glyph-name="Japan1.8063" 
d="M227 539l-76 142q111 95 272 95q127 0 200 -67t73 -182q0 -155 -195 -306l-81 -60v-2h292v-159h-584v115l107 88q147 123 205 188t58 121q0 44 -30 71.5t-80 27.5q-82 0 -161 -72zM872 -11q-43 0 -72 30.5t-29 78.5q0 47 29.5 78t72.5 31q45 0 73.5 -30t28.5 -79
q0 -48 -27.5 -78.5t-75.5 -30.5z" />
    <glyph glyph-name="Japan1.8064" 
d="M188 565l-47 143q41 28 113 48t152 20q125 0 199 -55.5t74 -140.5q0 -133 -147 -182v-2q74 -9 123.5 -58t49.5 -120q0 -106 -91 -169t-241 -63q-79 0 -146 19.5t-107 47.5l45 147q33 -21 87 -40.5t108 -19.5q65 0 101.5 23.5t36.5 63.5q0 45 -42.5 69.5t-102.5 24.5h-93
v140h91q49 0 88 21t39 63q0 34 -30 55.5t-84 21.5q-48 0 -97.5 -18.5t-78.5 -38.5zM872 -11q-43 0 -72 30.5t-29 78.5q0 47 29.5 78t72.5 31q45 0 73.5 -30t28.5 -79q0 -48 -27.5 -78.5t-75.5 -30.5z" />
    <glyph glyph-name="Japan1.8065" 
d="M655 0h-194v164h-364v127l288 471h270v-453h93v-145h-93v-164zM288 309h173v176q0 45 4 157h-5q-41 -89 -80 -161zM872 -11q-43 0 -72 30.5t-29 78.5q0 47 29.5 78t72.5 31q45 0 73.5 -30t28.5 -79q0 -48 -27.5 -78.5t-75.5 -30.5z" />
    <glyph glyph-name="Japan1.8066" 
d="M164 351l52 411h459v-159h-325l-14 -100q30 3 55 3q44 0 84.5 -6t85.5 -23t77.5 -44t54 -73.5t21.5 -107.5q0 -109 -95.5 -187.5t-255.5 -78.5q-145 0 -237 47l36 155q32 -19 86 -34.5t107 -15.5q60 0 107 26.5t47 80.5q0 120 -226 120q-66 0 -119 -14zM872 -11
q-43 0 -72 30.5t-29 78.5q0 47 29.5 78t72.5 31q45 0 73.5 -30t28.5 -79q0 -48 -27.5 -78.5t-75.5 -30.5z" />
    <glyph glyph-name="Japan1.8067" 
d="M316 461h3q62 49 163 49q106 0 180.5 -66.5t74.5 -184.5q0 -117 -87.5 -195t-214.5 -78q-83 0 -147.5 28.5t-103 77t-58 108t-19.5 126.5q0 204 130.5 327t339.5 123q31 0 57 -3l17 -144q-24 3 -55 3q-107 0 -184 -45.5t-96 -125.5zM416 371q-47 0 -82.5 -30.5
t-35.5 -74.5q4 -56 37 -96t94 -40q48 0 77 33.5t29 81.5q0 54 -30.5 90t-88.5 36zM872 -11q-43 0 -72 30.5t-29 78.5q0 47 29.5 78t72.5 31q45 0 73.5 -30t28.5 -79q0 -48 -27.5 -78.5t-75.5 -30.5z" />
    <glyph glyph-name="Japan1.8068" 
d="M128 762h582v-124l-331 -638h-214l332 601v2h-369v159zM872 -11q-43 0 -72 30.5t-29 78.5q0 47 29.5 78t72.5 31q45 0 73.5 -30t28.5 -79q0 -48 -27.5 -78.5t-75.5 -30.5z" />
    <glyph glyph-name="Japan1.8069" 
d="M249 385v3q-54 27 -83 70.5t-29 95.5q0 99 81 160.5t205 61.5q76 0 132 -19.5t85.5 -51t43 -64t13.5 -65.5q0 -54 -29 -98t-80 -69v-2q60 -21 101 -67.5t41 -117.5q0 -105 -84.5 -170.5t-231.5 -65.5q-78 0 -139 20t-95.5 52.5t-51.5 68.5t-17 72q0 130 138 186zM419 642
q-47 0 -70.5 -23.5t-23.5 -58.5q0 -33 30.5 -57.5t79.5 -37.5q31 6 54.5 30.5t23.5 56.5q0 37 -24 63.5t-70 26.5zM312 220v-2q0 -38 30.5 -67t76.5 -29q47 0 76 24t29 60q0 88 -120 115q-44 -8 -68 -35t-24 -66zM872 -11q-43 0 -72 30.5t-29 78.5q0 47 29.5 78t72.5 31
q45 0 73.5 -30t28.5 -79q0 -48 -27.5 -78.5t-75.5 -30.5z" />
    <glyph glyph-name="Japan1.8070" 
d="M526 301h-3q-62 -49 -163 -49q-106 0 -180.5 66.5t-74.5 184.5q0 117 87.5 195t214.5 78q84 0 149 -29t103 -78t57 -108t19 -125q0 -204 -130.5 -327t-339.5 -123q-31 0 -57 3l-17 144q24 -3 55 -3q107 0 184 45.5t96 125.5zM413 632q-48 0 -77 -33.5t-29 -81.5
q0 -54 30.5 -90t88.5 -36q47 0 82.5 30.5t35.5 74.5q-4 56 -37 96t-94 40zM872 -11q-43 0 -72 30.5t-29 78.5q0 47 29.5 78t72.5 31q45 0 73.5 -30t28.5 -79q0 -48 -27.5 -78.5t-75.5 -30.5z" />
    <glyph glyph-name="Japan1.8071" 
d="M227 855v-5q-112 -150 -112 -470q0 -321 112 -470v-5h-90q-112 146 -112 475t112 475h90zM773 -95v5q112 150 112 470q0 321 -112 470v5h90q112 -146 112 -475t-112 -475h-90zM460 39v539h-2l-130 -62l-26 122l174 83h136v-682h-152z" />
    <glyph glyph-name="Japan1.8072" 
d="M227 855v-5q-112 -150 -112 -470q0 -321 112 -470v-5h-90q-112 146 -112 475t112 475h90zM773 -95v5q112 150 112 470q0 321 -112 470v5h90q112 -146 112 -475t-112 -475h-90zM722 39h-444v102l81 84q102 102 147 164.5t45 120.5q0 41 -25 66t-73 25q-60 0 -127 -46
l-38 119q83 58 196 58q112 0 169.5 -59t57.5 -151q0 -139 -171 -295l-54 -50v-2h236v-136z" />
    <glyph glyph-name="Japan1.8073" 
d="M227 855v-5q-112 -150 -112 -470q0 -321 112 -470v-5h-90q-112 146 -112 475t112 475h90zM773 -95v5q112 150 112 470q0 321 -112 470v5h90q112 -146 112 -475t-112 -475h-90zM280 68l28 123q65 -35 134 -35q53 0 82.5 24.5t29.5 63.5q0 48 -36.5 72t-92.5 24h-46v116h42
q46 1 80 19t34 58q0 32 -23 51.5t-65 19.5q-62 0 -119 -34l-27 117q29 19 79.5 32t105.5 13q99 0 155 -49t56 -121q0 -54 -29 -94t-83 -62v-2q58 -14 95.5 -58.5t37.5 -109.5q0 -89 -71 -148.5t-191 -59.5q-107 0 -176 40z" />
    <glyph glyph-name="Japan1.8074" 
d="M658 39h-147v159h-273v107l239 416h181v-400h86v-123h-86v-159zM397 321h117v122q0 48 5 110h-3q-33 -72 -52 -107l-67 -123v-2zM227 855v-5q-112 -150 -112 -470q0 -321 112 -470v-5h-90q-112 146 -112 475t112 475h90zM773 -95v5q112 150 112 470q0 321 -112 470v5h90
q112 -146 112 -475t-112 -475h-90z" />
    <glyph glyph-name="Japan1.8075" 
d="M227 855v-5q-112 -150 -112 -470q0 -321 112 -470v-5h-90q-112 146 -112 475t112 475h90zM773 -95v5q112 150 112 470q0 321 -112 470v5h90q112 -146 112 -475t-112 -475h-90zM691 721v-135h-218l-12 -101q8 1 27 1q24 0 49.5 -4t58.5 -18.5t58 -37t42 -63.5t17 -94
q0 -101 -72 -171t-194 -70q-97 0 -161 33l25 123q60 -28 124 -28q50 0 83.5 26.5t33.5 75.5q0 111 -164 111q-41 0 -70 -4l40 356h333z" />
    <glyph glyph-name="Japan1.8076" 
d="M678 732v-130q-215 9 -252 -163l2 -1q43 43 117 43q81 0 136.5 -57t55.5 -152q0 -99 -66.5 -171.5t-171.5 -72.5q-114 0 -174.5 81t-60.5 208q0 83 21 155t64.5 132t119.5 94.5t176 34.5q23 0 33 -1zM505 144q33 0 53 32t20 82q0 47 -19.5 79t-57.5 32q-48 0 -67 -36
q-7 -15 -7 -57q0 -58 19.5 -95t58.5 -37zM227 855v-5q-112 -150 -112 -470q0 -321 112 -470v-5h-90q-112 146 -112 475t112 475h90zM773 -95v5q112 150 112 470q0 321 -112 470v5h90q112 -146 112 -475t-112 -475h-90z" />
    <glyph glyph-name="Japan1.8077" 
d="M227 855v-5q-112 -150 -112 -470q0 -321 112 -470v-5h-90q-112 146 -112 475t112 475h90zM773 -95v5q112 150 112 470q0 321 -112 470v5h90q112 -146 112 -475t-112 -475h-90zM289 721h442v-103l-250 -579h-165l248 544v2h-275v136z" />
    <glyph glyph-name="Japan1.8078" 
d="M373 392l-1 2q-44 26 -67 65.5t-23 83.5q0 85 64 137t160 52q99 0 154.5 -50.5t55.5 -122.5q0 -98 -94 -150v-2q51 -24 83.5 -68t32.5 -105q0 -94 -67.5 -150t-175.5 -56q-110 0 -172 54.5t-62 135.5q0 116 112 174zM503 625q-35 0 -51.5 -23t-16.5 -54q0 -61 79 -92
q23 8 39 32.5t16 53.5q0 34 -16.5 58.5t-49.5 24.5zM502 137q36 0 56.5 25.5t20.5 62.5q0 41 -25.5 70t-64.5 42q-67 -28 -67 -103q0 -40 22 -68.5t58 -28.5zM227 855v-5q-112 -150 -112 -470q0 -321 112 -470v-5h-90q-112 146 -112 475t112 475h90zM773 -95v5
q112 150 112 470q0 321 -112 470v5h90q112 -146 112 -475t-112 -475h-90z" />
    <glyph glyph-name="Japan1.8079" 
d="M322 28v130q215 -9 252 163l-2 1q-43 -43 -117 -43q-81 0 -136.5 57t-55.5 152q0 99 66.5 171.5t171.5 72.5q114 0 174.5 -81t60.5 -208q0 -83 -21 -155t-64.5 -132t-119.5 -94.5t-176 -34.5q-6 0 -17 0.5t-16 0.5zM495 616q-33 0 -53 -32t-20 -82q0 -47 19.5 -79
t57.5 -32q48 0 67 36q7 15 7 57q0 58 -19.5 95t-58.5 37zM227 855v-5q-112 -150 -112 -470q0 -321 112 -470v-5h-90q-112 146 -112 475t112 475h90zM773 -95v5q112 150 112 470q0 321 -112 470v5h90q112 -146 112 -475t-112 -475h-90z" />
    <glyph glyph-name="Japan1.8080" 
d="M638 48h-1q-36 0 -64.5 15.5t-46.5 42.5t-30.5 58.5t-18.5 70.5t-8.5 71.5t-2.5 66.5q0 88 16 161.5t56.5 125.5t101.5 52q44 0 76 -21t48 -50t25.5 -74t11.5 -77.5t2 -75.5v-27q0 -93 -16 -162.5t-42 -106t-53 -53.5t-54 -17zM635 188q33 0 33 192t-33 192
q-34 0 -34 -207q0 -177 34 -177zM227 855v-5q-112 -150 -112 -470q0 -321 112 -470v-5h-90q-112 146 -112 475t112 475h90zM773 -95v5q112 150 112 470q0 321 -112 470v5h90q112 -146 112 -475t-112 -475h-90zM263 55v521h-2l-66 -33l-11 114l88 48h125v-650h-134z" />
    <glyph glyph-name="Japan1.8081" 
d="M227 855v-5q-112 -150 -112 -470q0 -321 112 -470v-5h-90q-112 146 -112 475t112 475h90zM773 -95v5q112 150 112 470q0 321 -112 470v5h90q112 -146 112 -475t-112 -475h-90zM279 55v521h-2l-66 -33l-11 114l88 48h125v-650h-134zM619 55v521h-2l-66 -33l-11 114l88 48
h125v-650h-134z" />
    <glyph glyph-name="Japan1.8082" 
d="M227 855v-5q-112 -150 -112 -470q0 -321 112 -470v-5h-90q-112 146 -112 475t112 475h90zM773 -95v5q112 150 112 470q0 321 -112 470v5h90q112 -146 112 -475t-112 -475h-90zM263 55v521h-2l-66 -33l-11 114l88 48h125v-650h-134zM778 55h-312v111l57 93q5 9 19.5 33
t19.5 32.5t16.5 28.5t15.5 29t12 26t11 27.5l7 24.5t5.5 26.5t1.5 25.5q0 34 -19.5 53.5t-47.5 19.5q-42 0 -73 -15l-8 123q46 19 106 19q92 0 139 -49t47 -135q0 -91 -40.5 -164.5t-104.5 -141.5l-25 -27v-2h173v-138z" />
    <glyph glyph-name="Japan1.8083" 
d="M227 855v-5q-112 -150 -112 -470q0 -321 112 -470v-5h-90q-112 146 -112 475t112 475h90zM773 -95v5q112 150 112 470q0 321 -112 470v5h90q112 -146 112 -475t-112 -475h-90zM263 55v521h-2l-66 -33l-11 114l88 48h125v-650h-134zM474 67l12 126q30 -18 72 -18t63.5 23
t21.5 53q0 29 -10.5 48.5t-30 27.5t-36 10.5t-37.5 2.5v112h5q90 4 90 68q0 7 -1.5 14t-6.5 20t-20.5 21t-38.5 8q-25 0 -50 -15l-10 119q46 25 109 25q85 0 127.5 -47.5t42.5 -112.5q0 -45 -22.5 -81.5t-56.5 -56.5v-2q46 -23 71 -66t25 -100q0 -76 -56 -137t-161 -61
q-51 0 -102 19z" />
    <glyph glyph-name="Japan1.8084" 
d="M768 55h-122v139h-193v107l211 404h104v-386h56v-125h-56v-139zM573 319h76v92q0 46 5 80h-2q-3 -13 -21 -52l-58 -119v-1zM227 855v-5q-112 -150 -112 -470q0 -321 112 -470v-5h-90q-112 146 -112 475t112 475h90zM773 -95v5q112 150 112 470q0 321 -112 470v5h90
q112 -146 112 -475t-112 -475h-90zM263 55v521h-2l-66 -33l-11 114l88 48h125v-650h-134z" />
    <glyph glyph-name="Japan1.8085" 
d="M227 855v-5q-112 -150 -112 -470q0 -321 112 -470v-5h-90q-112 146 -112 475t112 475h90zM773 -95v5q112 150 112 470q0 321 -112 470v5h90q112 -146 112 -475t-112 -475h-90zM263 55v521h-2l-66 -33l-11 114l88 48h125v-650h-134zM501 372l28 333h242v-137h-125l-7 -92
q15 0 36.5 -9.5t46.5 -29.5t42 -60t17 -92q0 -101 -57 -169t-158 -68q-57 0 -95 19l16 125q33 -15 65 -15q84 0 84 90q0 32 -12 54t-31 32t-36 14t-34 4z" />
    <glyph glyph-name="Japan1.8086" 
d="M766 712v-130q-44 -2 -74 -10q-33 -9 -57.5 -49.5t-33.5 -83.5l3 1q32 30 80 30q59 0 98.5 -53.5t39.5 -137.5q0 -38 -11 -76.5t-32.5 -74t-60 -58t-87.5 -22.5q-76 0 -122 68.5t-46 197.5q0 121 35.5 206t84.5 128q34 29 72 44.5t58.5 17.5t52.5 2zM645 156
q21 0 31.5 31.5t10.5 79.5q0 44 -11.5 73.5t-32.5 29.5q-15 0 -24 -8.5t-12.5 -24.5t-4.5 -27t-1 -29q0 -54 11.5 -89.5t32.5 -35.5zM227 855v-5q-112 -150 -112 -470q0 -321 112 -470v-5h-90q-112 146 -112 475t112 475h90zM773 -95v5q112 150 112 470q0 321 -112 470v5h90
q112 -146 112 -475t-112 -475h-90zM263 55v521h-2l-66 -33l-11 114l88 48h125v-650h-134z" />
    <glyph glyph-name="Japan1.8087" 
d="M263 55v521h-2l-66 -33l-11 114l88 48h125v-650h-134zM485 705h308v-107l-163 -543h-131l151 510v2h-165v138zM227 855v-5q-112 -150 -112 -470q0 -321 112 -470v-5h-90q-112 146 -112 475t112 475h90zM773 -95v5q112 150 112 470q0 321 -112 470v5h90q112 -146 112 -475
t-112 -475h-90z" />
    <glyph glyph-name="Japan1.8088" 
d="M539 403v2q-67 47 -67 138q0 77 51 123t125 46q20 0 43.5 -7t50 -23t44 -50t17.5 -81v-8q0 -80 -82 -130v-2q89 -43 89 -169q0 -97 -55 -145.5t-121 -48.5q-22 0 -44 4.5t-46.5 17.5t-43 32.5t-30.5 53.5t-12 77q0 52 22.5 97.5t58.5 72.5zM648 617h-1q-43 0 -43 -73
q0 -67 50 -88q27 9 27 85t-33 76zM637 143q27 0 35.5 23.5t8.5 68.5q0 36 -14 64.5t-26 39t-21 13.5q-30 -43 -30 -112q0 -97 47 -97zM227 855v-5q-112 -150 -112 -470q0 -321 112 -470v-5h-90q-112 146 -112 475t112 475h90zM773 -95v5q112 150 112 470q0 321 -112 470v5
h90q112 -146 112 -475t-112 -475h-90zM263 55v521h-2l-66 -33l-11 114l88 48h125v-650h-134z" />
    <glyph glyph-name="Japan1.8089" 
d="M519 48v130q45 2 74 10q34 9 58.5 51t31.5 82l-3 -1q-30 -30 -79 -30q-59 0 -98.5 53.5t-39.5 137.5q0 38 10.5 76.5t32 74t60.5 58t88 22.5q76 0 121.5 -68t45.5 -198q0 -121 -35 -206t-84 -128q-34 -29 -72 -44.5t-58.5 -17.5t-52.5 -2zM640 604q-21 0 -31.5 -31.5
t-10.5 -79.5q0 -44 11.5 -73.5t32.5 -29.5q13 0 23 10t14 24q4 11 4 62q0 52 -11 85t-32 33zM227 855v-5q-112 -150 -112 -470q0 -321 112 -470v-5h-90q-112 146 -112 475t112 475h90zM773 -95v5q112 150 112 470q0 321 -112 470v5h90q112 -146 112 -475t-112 -475h-90z
M263 55v521h-2l-66 -33l-11 114l88 48h125v-650h-134z" />
    <glyph glyph-name="Japan1.8090" 
d="M821 428v-41q0 -95 -15.5 -165t-40 -105.5t-48.5 -52t-47 -16.5q-159 0 -159 325q0 90 15 163.5t53 124.5t94 51q34 0 59.5 -13t41 -37t26 -50t14.5 -62t5.5 -62t1.5 -60zM667 180q31 0 31 200t-31 200q-33 0 -33 -216q0 -184 33 -184zM227 855v-5q-112 -150 -112 -470
q0 -321 112 -470v-5h-90q-112 146 -112 475t112 475h90zM773 -95v5q112 150 112 470q0 321 -112 470v5h90q112 -146 112 -475t-112 -475h-90zM471 55h-287v104l52 93q35 62 52.5 97t32.5 82.5t15 89.5q0 31 -17.5 51.5t-46.5 20.5q-35 0 -65 -12l-5 116q41 15 92 15
q83 0 128.5 -49t45.5 -132q0 -21 -1.5 -40t-7.5 -40t-9 -34.5t-15 -36.5t-15 -31.5t-19 -34t-19 -30t-22.5 -34t-20.5 -31.5l-22 -33v-2h154v-129z" />
    <glyph glyph-name="Japan1.8091" 
d="M975 380q0 -97 -38 -185t-102 -151.5t-151.5 -101t-183.5 -37.5q-196 0 -335.5 139.5t-139.5 335.5t139.5 335.5t335.5 139.5t335.5 -139.5t139.5 -335.5zM500 815q-181 0 -308 -128t-127 -307q0 -180 127.5 -307.5t307.5 -127.5t307.5 127.5t127.5 307.5t-127.5 307.5
t-307.5 127.5zM469 136h-264v87l49 69q51 70 72 109t21 77q0 25 -15.5 38.5t-37.5 13.5q-34 0 -65 -17l-14 96q44 21 100 21q46 0 78 -14t46.5 -37.5t20.5 -45.5t6 -46q0 -45 -18 -87t-37.5 -65.5t-55.5 -61.5l-27 -28v-3h141v-106zM630 136v374h-1l-79 -38l-19 98l109 54
h110v-488h-120z" />
    <glyph glyph-name="Japan1.8092" 
d="M500 633q-49 0 -75 29t-26 69q0 43 27.5 70.5t73.5 27.5t73.5 -27.5t27.5 -70.5q0 -42 -27.5 -70t-73.5 -28zM591 0h-182v564h182v-564z" />
    <glyph glyph-name="Japan1.8093" 
d="M338 639q-47 0 -72.5 28t-25.5 67q0 42 27 68.5t71 26.5t71 -26.5t27 -68.5q0 -41 -27 -68t-71 -27zM662 639q-47 0 -72.5 28t-25.5 67q0 42 27 68.5t71 26.5t71 -26.5t27 -68.5q0 -41 -27 -68t-71 -27zM426 0h-176v564h176v-564zM750 0h-176v564h176v-564z" />
    <glyph glyph-name="Japan1.8094" 
d="M248 643q-46 0 -71 27.5t-25 65.5q0 40 26 66.5t70 26.5t70 -26.5t26 -66.5t-26.5 -66.5t-69.5 -26.5zM500 643q-46 0 -71 27.5t-25 65.5q0 40 26 66.5t70 26.5t70 -26.5t26 -66.5t-26.5 -66.5t-69.5 -26.5zM752 643q-46 0 -71 27.5t-25 65.5q0 40 26 66.5t70 26.5
t70 -26.5t26 -66.5t-26.5 -66.5t-69.5 -26.5zM334 0h-172v564h172v-564zM586 0h-172v564h172v-564zM838 0h-172v564h172v-564z" />
    <glyph glyph-name="Japan1.8095" 
d="M202 643q-46 0 -71 27.5t-25 65.5q0 40 26 66.5t70 26.5t70 -26.5t26 -66.5t-26.5 -66.5t-69.5 -26.5zM288 0h-172v564h172v-564zM343 564h194l64 -237q22 -82 31 -125h4q13 65 29 125l62 237h189l-210 -564h-155z" />
    <glyph glyph-name="Japan1.8096" 
d="M195 564h201l77 -254q19 -67 31 -135h4q13 77 31 135l72 254h193l-231 -564h-148z" />
    <glyph glyph-name="Japan1.8097" 
d="M798 643q-46 0 -71 27.5t-25 65.5q0 40 26 66.5t70 26.5t70 -26.5t26 -66.5t-26.5 -66.5t-69.5 -26.5zM84 564h194l64 -237q22 -82 31 -125h4q13 65 29 125l62 237h189l-210 -564h-155zM884 0h-172v564h172v-564z" />
    <glyph glyph-name="Japan1.8098" 
d="M633 655q-42 0 -66.5 25.5t-24.5 61.5q0 38 24.5 62.5t65.5 24.5t65.5 -24.5t24.5 -62.5t-24.5 -62.5t-64.5 -24.5zM860 655q-42 0 -66.5 25.5t-24.5 61.5q0 38 24.5 62.5t65.5 24.5t65.5 -24.5t24.5 -62.5t-24.5 -62.5t-64.5 -24.5zM383 564h330v-564h-162v533
l-187 -533h-147l-197 564h184l60 -237q17 -65 30 -125h3q11 53 28 125zM940 0h-162v564h162v-564z" />
    <glyph glyph-name="Japan1.8099" 
d="M540 664q-34 0 -53.5 24t-19.5 59q0 36 20 59t53 23t53 -23t20 -59t-20 -59.5t-53 -23.5zM710 664q-34 0 -53.5 24t-19.5 59q0 36 20 59t53 23t53 -23t20 -59t-20 -59.5t-53 -23.5zM880 664q-34 0 -53.5 24t-19.5 59q0 36 20 59t53 23t53 -23t20 -59t-20 -59.5t-53 -23.5
zM340 564h265v-564h-130v493l-153 -493h-129l-173 564h162l53 -237q18 -82 26 -125h3q16 86 24 125zM775 0h-130v564h130v-564zM945 0h-130v564h130v-564z" />
    <glyph glyph-name="Japan1.8100" 
d="M202 643q-46 0 -71 27.5t-25 65.5q0 40 26 66.5t70 26.5t70 -26.5t26 -66.5t-26.5 -66.5t-69.5 -26.5zM288 0h-172v564h172v-564zM352 564h194l45 -90q23 -44 47 -96h3q13 33 45 99l41 87h184l-173 -268l175 -296h-193l-48 96q-38 79 -46 97h-3q-16 -39 -43 -95l-47 -98
h-185l178 288z" />
    <glyph glyph-name="Japan1.8101" 
d="M200 564h209l48 -90q32 -57 50 -96h3q21 45 49 99l45 87h197l-186 -268l188 -296h-207l-52 96q-27 49 -49 97h-3q-33 -69 -47 -96l-51 -97h-198l192 288z" />
    <glyph glyph-name="Japan1.8102" 
d="M975 380q0 -97 -38 -185t-102 -151.5t-151.5 -101t-183.5 -37.5q-196 0 -335.5 139.5t-139.5 335.5t139.5 335.5t335.5 139.5t335.5 -139.5t139.5 -335.5zM500 815q-181 0 -308 -128t-127 -307q0 -180 127.5 -307.5t307.5 -127.5t307.5 127.5t127.5 307.5t-127.5 307.5
t-307.5 127.5zM469 136h-264v87l49 69q51 70 72 109t21 77q0 25 -15.5 38.5t-37.5 13.5q-34 0 -65 -17l-14 96q44 21 100 21q46 0 78 -14t46.5 -37.5t20.5 -45.5t6 -46q0 -45 -18 -87t-37.5 -65.5t-55.5 -61.5l-27 -28v-3h141v-106zM797 136h-264v87l49 69q51 70 72 109
t21 77q0 25 -15.5 38.5t-37.5 13.5q-34 0 -65 -17l-14 96q44 21 100 21q46 0 78 -14t46.5 -37.5t20.5 -45.5t6 -46q0 -45 -18 -87t-37.5 -65.5t-55.5 -61.5l-27 -28v-3h141v-106z" />
    <glyph glyph-name="Japan1.8103" 
d="M975 380q0 -97 -38 -185t-102 -151.5t-151.5 -101t-183.5 -37.5q-196 0 -335.5 139.5t-139.5 335.5t139.5 335.5t335.5 139.5t335.5 -139.5t139.5 -335.5zM500 815q-181 0 -308 -128t-127 -307q0 -180 127.5 -307.5t307.5 -127.5t307.5 127.5t127.5 307.5t-127.5 307.5
t-307.5 127.5zM469 136h-264v87l49 69q51 70 72 109t21 77q0 25 -15.5 38.5t-37.5 13.5q-34 0 -65 -17l-14 96q44 21 100 21q46 0 78 -14t46.5 -37.5t20.5 -45.5t6 -46q0 -45 -18 -87t-37.5 -65.5t-55.5 -61.5l-27 -28v-3h141v-106zM528 146l11 97q29 -15 69 -15
q37 0 55 16.5t18 37.5q0 65 -104 65v87q91 0 91 51q0 21 -15 34t-41 13q-33 0 -56 -13l-10 91q40 20 98 20q71 0 107.5 -36t36.5 -85q0 -34 -19 -62t-47 -42v-2q80 -35 80 -123q0 -56 -47.5 -103t-135.5 -47q-49 0 -91 16z" />
    <glyph glyph-name="Japan1.8104" 
d="M777 136h-106v102h-179v86l161 300h124v-290h41v-96h-41v-102zM598 334h73v90q0 28 7 75h-2q-10 -27 -29 -65l-49 -97v-3zM975 380q0 -97 -38 -185t-102 -151.5t-151.5 -101t-183.5 -37.5q-196 0 -335.5 139.5t-139.5 335.5t139.5 335.5t335.5 139.5t335.5 -139.5
t139.5 -335.5zM500 815q-181 0 -308 -128t-127 -307q0 -180 127.5 -307.5t307.5 -127.5t307.5 127.5t127.5 307.5t-127.5 307.5t-307.5 127.5zM469 136h-264v87l49 69q51 70 72 109t21 77q0 25 -15.5 38.5t-37.5 13.5q-34 0 -65 -17l-14 96q44 21 100 21q46 0 78 -14
t46.5 -37.5t20.5 -45.5t6 -46q0 -45 -18 -87t-37.5 -65.5t-55.5 -61.5l-27 -28v-3h141v-106z" />
    <glyph glyph-name="Japan1.8105" 
d="M975 380q0 -97 -38 -185t-102 -151.5t-151.5 -101t-183.5 -37.5q-196 0 -335.5 139.5t-139.5 335.5t139.5 335.5t335.5 139.5t335.5 -139.5t139.5 -335.5zM500 815q-181 0 -308 -128t-127 -307q0 -180 127.5 -307.5t307.5 -127.5t307.5 127.5t127.5 307.5t-127.5 307.5
t-307.5 127.5zM469 136h-264v87l49 69q51 70 72 109t21 77q0 25 -15.5 38.5t-37.5 13.5q-34 0 -65 -17l-14 96q44 21 100 21q46 0 78 -14t46.5 -37.5t20.5 -45.5t6 -46q0 -45 -18 -87t-37.5 -65.5t-55.5 -61.5l-27 -28v-3h141v-106zM787 624v-106h-124l-4 -64q60 0 99.5 -43
t39.5 -104q0 -75 -49 -126t-136 -51q-53 0 -89 16l15 96q33 -13 65 -13q75 0 75 64q0 22 -9.5 37t-21 22.5t-32.5 11.5t-33.5 4.5t-33.5 0.5l22 255h216z" />
    <glyph glyph-name="Japan1.8106" 
d="M975 380q0 -97 -38 -185t-102 -151.5t-151.5 -101t-183.5 -37.5q-196 0 -335.5 139.5t-139.5 335.5t139.5 335.5t335.5 139.5t335.5 -139.5t139.5 -335.5zM500 815q-181 0 -308 -128t-127 -307q0 -180 127.5 -307.5t307.5 -127.5t307.5 127.5t127.5 307.5t-127.5 307.5
t-307.5 127.5zM766 630v-98q-29 -1 -43 -3.5t-33 -12t-32 -31t-23 -58.5h2q24 22 59 22q50 0 83.5 -40.5t33.5 -103.5q0 -40 -15.5 -78t-53.5 -67.5t-92 -29.5q-65 0 -104 52.5t-39 149.5q0 89 29.5 152.5t71.5 99.5q38 32 101 44q12 2 55 2zM700 292q0 78 -40 78
q-20 0 -27 -21t-7 -73q0 -28 10 -47.5t24 -19.5q22 0 31 18.5t9 64.5zM469 136h-264v87l49 69q51 70 72 109t21 77q0 25 -15.5 38.5t-37.5 13.5q-34 0 -65 -17l-14 96q44 21 100 21q46 0 78 -14t46.5 -37.5t20.5 -45.5t6 -46q0 -45 -18 -87t-37.5 -65.5t-55.5 -61.5l-27 -28
v-3h141v-106z" />
    <glyph glyph-name="Japan1.8107" 
d="M975 380q0 -97 -38 -185t-102 -151.5t-151.5 -101t-183.5 -37.5q-196 0 -335.5 139.5t-139.5 335.5t139.5 335.5t335.5 139.5t335.5 -139.5t139.5 -335.5zM500 815q-181 0 -308 -128t-127 -307q0 -180 127.5 -307.5t307.5 -127.5t307.5 127.5t127.5 307.5t-127.5 307.5
t-307.5 127.5zM469 136h-264v87l49 69q51 70 72 109t21 77q0 25 -15.5 38.5t-37.5 13.5q-34 0 -65 -17l-14 96q44 21 100 21q46 0 78 -14t46.5 -37.5t20.5 -45.5t6 -46q0 -45 -18 -87t-37.5 -65.5t-55.5 -61.5l-27 -28v-3h141v-106zM535 624h271v-85l-136 -403h-113l130 379
v3h-152v106z" />
    <glyph glyph-name="Japan1.8108" 
d="M581 392v1q-57 35 -57 103q0 60 45 95.5t111 35.5q51 0 94.5 -30.5t43.5 -92.5q0 -66 -66 -102v-2q37 -15 56 -48.5t19 -75.5q0 -73 -47.5 -110t-110.5 -37q-40 0 -73.5 12t-58.5 44.5t-25 82.5q0 39 19 72t50 52zM680 559q-48 0 -48 -61q0 -53 56 -72q14 8 22 28t8 41
q0 64 -38 64zM673 201q46 0 46 72q0 31 -20.5 54.5t-43.5 28.5q-33 -29 -33 -77q0 -78 51 -78zM975 380q0 -97 -38 -185t-102 -151.5t-151.5 -101t-183.5 -37.5q-196 0 -335.5 139.5t-139.5 335.5t139.5 335.5t335.5 139.5t335.5 -139.5t139.5 -335.5zM500 815
q-181 0 -308 -128t-127 -307q0 -180 127.5 -307.5t307.5 -127.5t307.5 127.5t127.5 307.5t-127.5 307.5t-307.5 127.5zM469 136h-264v87l49 69q51 70 72 109t21 77q0 25 -15.5 38.5t-37.5 13.5q-34 0 -65 -17l-14 96q44 21 100 21q46 0 78 -14t46.5 -37.5t20.5 -45.5t6 -46
q0 -45 -18 -87t-37.5 -65.5t-55.5 -61.5l-27 -28v-3h141v-106z" />
    <glyph glyph-name="Japan1.8109" 
d="M975 380q0 -97 -38 -185t-102 -151.5t-151.5 -101t-183.5 -37.5q-196 0 -335.5 139.5t-139.5 335.5t139.5 335.5t335.5 139.5t335.5 -139.5t139.5 -335.5zM500 815q-181 0 -308 -128t-127 -307q0 -180 127.5 -307.5t307.5 -127.5t307.5 127.5t127.5 307.5t-127.5 307.5
t-307.5 127.5zM566 130v98q27 1 41.5 3.5t34 11.5t33 31.5t22.5 58.5h-2q-24 -22 -58 -22q-50 0 -83.5 40t-33.5 104q0 65 41 120t119 55q66 0 105 -52t39 -150q0 -89 -29.5 -152.5t-71.5 -99.5q-40 -32 -102 -44q-11 -2 -55 -2zM633 468q0 -78 39 -78q21 0 28 20.5t7 73.5
q0 28 -10.5 47.5t-24.5 19.5q-22 0 -30.5 -20.5t-8.5 -62.5zM469 136h-264v87l49 69q51 70 72 109t21 77q0 25 -15.5 38.5t-37.5 13.5q-34 0 -65 -17l-14 96q44 21 100 21q46 0 78 -14t46.5 -37.5t20.5 -45.5t6 -46q0 -45 -18 -87t-37.5 -65.5t-55.5 -61.5l-27 -28v-3h141
v-106z" />
    <glyph glyph-name="Japan1.8110" 
d="M975 380q0 -97 -38 -185t-102 -151.5t-151.5 -101t-183.5 -37.5q-196 0 -335.5 139.5t-139.5 335.5t139.5 335.5t335.5 139.5t335.5 -139.5t139.5 -335.5zM500 815q-181 0 -308 -128t-127 -307q0 -180 127.5 -307.5t307.5 -127.5t307.5 127.5t127.5 307.5t-127.5 307.5
t-307.5 127.5zM673 130q-38 0 -66.5 17t-45 42t-26.5 60t-13.5 64.5t-3.5 61.5q0 48 8.5 91.5t26 81t49 60t72.5 22.5q42 0 71.5 -19t44 -44t22.5 -64t9.5 -62.5t1.5 -55.5q0 -129 -44.5 -192t-105.5 -63zM673 232q12 0 18.5 10.5t10 43.5t3.5 94q0 83 -6 115.5t-25 32.5
q-21 0 -29.5 -30.5t-8.5 -117.5q0 -90 8 -119t29 -29zM389 405v-2q75 -34 75 -123q0 -56 -44 -103t-125 -47q-47 0 -85 16l10 97q25 -15 60 -15q33 0 48 16.5t15 37.5q0 65 -88 65v87q75 0 75 51q0 21 -13 34t-34 13q-28 0 -47 -13l-9 91q36 20 90 20q66 0 100 -36t34 -85
q0 -34 -17.5 -62t-44.5 -42z" />
    <glyph glyph-name="Japan1.8111" 
d="M975 380q0 -97 -38 -185t-102 -151.5t-151.5 -101t-183.5 -37.5q-196 0 -335.5 139.5t-139.5 335.5t139.5 335.5t335.5 139.5t335.5 -139.5t139.5 -335.5zM500 815q-181 0 -308 -128t-127 -307q0 -180 127.5 -307.5t307.5 -127.5t307.5 127.5t127.5 307.5t-127.5 307.5
t-307.5 127.5zM210 146l10 97q25 -15 60 -15q33 0 48 16.5t15 37.5q0 65 -88 65v87q75 0 75 51q0 21 -13 34t-34 13q-28 0 -47 -13l-9 91q36 20 90 20q66 0 100 -36t34 -85q0 -34 -17.5 -62t-44.5 -42v-2q75 -34 75 -123q0 -56 -44 -103t-125 -47q-47 0 -85 16zM630 136v374
h-1l-79 -38l-19 98l109 54h110v-488h-120z" />
    <glyph glyph-name="Japan1.8112" 
d="M705 408v-192q0 -75 9 -123h-141l-9 52h-2q-46 -59 -125 -59q-64 0 -105.5 45.5t-41.5 117.5q0 67 40 113.5t96.5 65.5t123.5 20q0 75 -78 75q-61 0 -119 -32l-29 103q79 42 180 42q64 0 106.5 -19.5t62 -56t26 -71t6.5 -81.5zM557 258v93q-51 -1 -88.5 -20.5
t-37.5 -65.5q0 -34 18 -51.5t40 -17.5q6 0 13.5 1.5t22 6t23.5 19t9 35.5zM227 855v-5q-112 -150 -112 -470q0 -321 112 -470v-5h-90q-112 146 -112 475t112 475h90zM773 -95v5q112 150 112 470q0 321 -112 470v5h90q112 -146 112 -475t-112 -475h-90z" />
    <glyph glyph-name="Japan1.8113" 
d="M307 166v591h148v-271h3q42 60 109 60q74 0 111 -73.5t37 -185.5q0 -137 -47.5 -214t-125.5 -77q-33 0 -56.5 14.5t-44.5 53.5h-2l-9 -61h-127q4 68 4 163zM455 348v-152q0 -25 13 -49t36 -24q63 0 63 154q0 142 -63 142q-22 0 -35.5 -23t-13.5 -48zM222 855v-5
q-112 -150 -112 -470q0 -321 112 -470v-5h-85q-112 146 -112 475t112 475h85zM778 -95v5q112 150 112 470q0 321 -112 470v5h85q112 -146 112 -475t-112 -475h-85z" />
    <glyph glyph-name="Japan1.8114" 
d="M222 855v-5q-112 -150 -112 -470q0 -321 112 -470v-5h-85q-112 146 -112 475t112 475h85zM778 -95v5q112 150 112 470q0 321 -112 470v5h85q112 -146 112 -475t-112 -475h-85zM671 222l15 -118q-40 -18 -114 -18q-120 0 -189.5 70.5t-69.5 198.5q0 124 76.5 202.5
t206.5 78.5q52 0 97 -15l-22 -120q-31 11 -75 11q-62 0 -98.5 -41.5t-36.5 -109.5q0 -70 37 -110.5t98 -40.5q39 0 75 12z" />
    <glyph glyph-name="Japan1.8115" 
d="M545 757h148v-591q0 -57 4 -163h-128l-8 58h-3q-15 -28 -44.5 -46.5t-63.5 -18.5q-56 0 -94.5 39.5t-54.5 99t-16 135.5q0 132 49 204t121 72q64 0 88 -51h2v262zM545 191v145q0 44 -15 63.5t-33 19.5q-64 0 -64 -151q0 -71 17.5 -108t45.5 -37q22 0 35.5 20t13.5 48z
M222 855v-5q-112 -150 -112 -470q0 -321 112 -470v-5h-85q-112 146 -112 475t112 475h85zM778 -95v5q112 150 112 470q0 321 -112 470v5h85q112 -146 112 -475t-112 -475h-85z" />
    <glyph glyph-name="Japan1.8116" 
d="M708 303h-277q1 -51 34 -76t88 -25q61 0 115 18l21 -109q-63 -25 -160 -25q-117 0 -179.5 68.5t-62.5 194.5q0 132 65 209.5t165 77.5q93 0 144.5 -65t51.5 -190q0 -53 -5 -78zM431 409h147q0 116 -70 116q-38 0 -57 -35.5t-20 -80.5zM222 855v-5q-112 -150 -112 -470
q0 -321 112 -470v-5h-85q-112 146 -112 475t112 475h85zM778 -95v5q112 150 112 470q0 321 -112 470v5h85q112 -146 112 -475t-112 -475h-85z" />
    <glyph glyph-name="Japan1.8117" 
d="M222 855v-5q-112 -150 -112 -470q0 -321 112 -470v-5h-85q-112 146 -112 475t112 475h85zM778 -95v5q112 150 112 470q0 321 -112 470v5h85q112 -146 112 -475t-112 -475h-85zM546 3h-148v428h-73v108h73v14q0 61 18.5 105t49 65.5t60.5 31t61 9.5q49 0 89 -12l-15 -120
q-21 8 -47 8q-24 0 -39 -10t-20.5 -28.5t-7 -31t-1.5 -31.5h98v-108h-98v-428z" />
    <glyph glyph-name="Japan1.8118" 
d="M693 501v-306q0 -28 -1 -48t-6 -50.5t-14 -53t-27 -47t-43 -40t-63 -26t-86 -10.5q-75 0 -132 25l27 118q44 -23 100 -23q28 0 47 10t28.5 22.5t14.5 36.5t5.5 39t0.5 43h-2q-28 -51 -93 -51q-58 0 -96.5 40.5t-53 96t-14.5 122.5q0 128 50.5 205t127.5 77q64 0 96 -62h2
l8 55h129q-5 -68 -5 -173zM544 331v145q0 33 -12 54t-31 21q-68 0 -68 -149q0 -69 18 -105.5t47 -36.5q17 0 31.5 17t14.5 54zM222 855v-5q-112 -150 -112 -470q0 -321 112 -470v-5h-85q-112 146 -112 475t112 475h85zM778 -95v5q112 150 112 470q0 321 -112 470v5h85
q112 -146 112 -475t-112 -475h-85z" />
    <glyph glyph-name="Japan1.8119" 
d="M222 855v-5q-112 -150 -112 -470q0 -321 112 -470v-5h-85q-112 146 -112 475t112 475h85zM778 -95v5q112 150 112 470q0 321 -112 470v5h85q112 -146 112 -475t-112 -475h-85zM308 3v754h148v-273h3q41 62 113 62t101 -57.5t29 -164.5v-321h-148v324q0 90 -45 90
q-17 0 -29 -11.5t-16.5 -28.5t-6 -28t-1.5 -17v-329h-148z" />
    <glyph glyph-name="Japan1.8120" 
d="M222 855v-5q-112 -150 -112 -470q0 -321 112 -470v-5h-85q-112 146 -112 475t112 475h85zM778 -95v5q112 150 112 470q0 321 -112 470v5h85q112 -146 112 -475t-112 -475h-85zM499 591q-36 0 -60.5 26.5t-24.5 65.5q0 43 25 68.5t61 25.5q37 0 61.5 -25.5t24.5 -68.5
q0 -41 -25 -66.5t-62 -25.5zM574 -16h-148v536h148v-536z" />
    <glyph glyph-name="Japan1.8121" 
d="M222 855v-5q-112 -150 -112 -470q0 -321 112 -470v-5h-85q-112 146 -112 475t112 475h85zM778 -95v5q112 150 112 470q0 321 -112 470v5h85q112 -146 112 -475t-112 -475h-85zM530 645q-37 0 -61 26.5t-24 65.5q0 43 25 68.5t61 25.5t61 -25.5t25 -68.5q0 -40 -25.5 -66
t-61.5 -26zM359 -71l-12 121q73 7 91.5 41.5t18.5 134.5v348h148v-374q0 -38 -3.5 -67.5t-12 -62t-26 -56t-44 -43.5t-67 -30.5t-93.5 -11.5z" />
    <glyph glyph-name="Japan1.8122" 
d="M222 855v-5q-112 -150 -112 -470q0 -321 112 -470v-5h-85q-112 146 -112 475t112 475h85zM778 -95v5q112 150 112 470q0 321 -112 470v5h85q112 -146 112 -475t-112 -475h-85zM468 757v-452h3q17 55 25 79l61 155h157l-120 -225l122 -311h-163l-63 215l-22 -45v-170h-148
v754h148z" />
    <glyph glyph-name="Japan1.8123" 
d="M222 855v-5q-112 -150 -112 -470q0 -321 112 -470v-5h-85q-112 146 -112 475t112 475h85zM778 -95v5q112 150 112 470q0 321 -112 470v5h85q112 -146 112 -475t-112 -475h-85zM426 3v754h148v-754h-148z" />
    <glyph glyph-name="Japan1.8124" 
d="M222 855v-5q-112 -150 -112 -470q0 -321 112 -470v-5h-85q-112 146 -112 475t112 475h85zM778 -95v5q112 150 112 470q0 321 -112 470v5h85q112 -146 112 -475t-112 -475h-85zM257 93v381q0 43 -4 155h112l7 -52h1q37 59 90 59q69 0 87 -56h2q10 22 35 39t59 17
q60 0 78.5 -45.5t18.5 -139.5v-358h-125v312q0 55 -4.5 75.5t-17.5 20.5q-35 0 -35 -77v-331h-122v312q0 55 -4.5 75.5t-17.5 20.5q-35 0 -35 -77v-331h-125z" />
    <glyph glyph-name="Japan1.8125" 
d="M222 855v-5q-112 -150 -112 -470q0 -321 112 -470v-5h-85q-112 146 -112 475t112 475h85zM778 -95v5q112 150 112 470q0 321 -112 470v5h85q112 -146 112 -475t-112 -475h-85zM303 93v373q0 4 -3 163h127l7 -60h2q45 68 125 68q136 0 136 -198v-346h-149v337q0 78 -43 78
q-27 0 -40.5 -29t-13.5 -62v-324h-148z" />
    <glyph glyph-name="Japan1.8126" 
d="M501 86q-108 0 -166.5 73.5t-58.5 199.5q0 134 65.5 205.5t161.5 71.5q103 0 162 -74t59 -199q0 -78 -21.5 -135.5t-57 -86.5t-71 -42t-73.5 -13zM503 201q22 0 37.5 16.5t22.5 43.5t10 51t3 50q0 65 -17.5 112t-56.5 47q-78 0 -78 -159q0 -161 79 -161zM222 855v-5
q-112 -150 -112 -470q0 -321 112 -470v-5h-85q-112 146 -112 475t112 475h85zM778 -95v5q112 150 112 470q0 321 -112 470v5h85q112 -146 112 -475t-112 -475h-85z" />
    <glyph glyph-name="Japan1.8127" 
d="M307 -71v575q0 30 -4 170h130l8 -61h2q33 68 109 68q84 0 123.5 -78.5t39.5 -196.5q0 -134 -49 -204.5t-122 -70.5q-52 0 -85 49h-4v-251h-148zM455 482v-148q0 -76 48 -76q33 0 48.5 42t15.5 107q0 147 -62 147q-23 0 -36.5 -21.5t-13.5 -50.5zM222 855v-5
q-112 -150 -112 -470q0 -321 112 -470v-5h-85q-112 146 -112 475t112 475h85zM778 -95v5q112 150 112 470q0 321 -112 470v5h85q112 -146 112 -475t-112 -475h-85z" />
    <glyph glyph-name="Japan1.8128" 
d="M544 -71v253h-2q-35 -51 -98 -51q-74 0 -116.5 76.5t-42.5 185.5q0 132 50.5 210t130.5 78q65 0 95 -62l2 -2l8 57h126q-5 -128 -5 -171v-574h-148zM544 328v153q0 20 -4.5 34.5t-10 21.5t-13 11.5t-11.5 5t-8 0.5q-30 0 -47 -38t-17 -109q0 -70 17 -109.5t47 -39.5
q21 0 34 21t13 49zM222 855v-5q-112 -150 -112 -470q0 -321 112 -470v-5h-85q-112 146 -112 475t112 475h85zM778 -95v5q112 150 112 470q0 321 -112 470v5h85q112 -146 112 -475t-112 -475h-85z" />
    <glyph glyph-name="Japan1.8129" 
d="M222 855v-5q-112 -150 -112 -470q0 -321 112 -470v-5h-85q-112 146 -112 475t112 475h85zM778 -95v5q112 150 112 470q0 321 -112 470v5h85q112 -146 112 -475t-112 -475h-85zM363 93v365q0 89 -5 171h135l7 -90h5q17 48 55 72.5t77 24.5q19 0 39 -3v-153q-19 4 -46 4
q-53 0 -86 -31t-33 -89v-271h-148z" />
    <glyph glyph-name="Japan1.8130" 
d="M222 855v-5q-112 -150 -112 -470q0 -321 112 -470v-5h-85q-112 146 -112 475t112 475h85zM778 -95v5q112 150 112 470q0 321 -112 470v5h85q112 -146 112 -475t-112 -475h-85zM298 125l29 111q65 -36 154 -36q36 0 55 12t19 30q0 17 -18 30.5t-66 29.5q-162 54 -162 159
q0 76 60 125.5t158 49.5q89 0 146 -31l-30 -110q-64 27 -124 27q-70 0 -70 -35q0 -20 18 -32.5t73 -31.5q83 -28 119 -68.5t36 -96.5q0 -79 -61 -125.5t-171 -46.5q-101 0 -165 39z" />
    <glyph glyph-name="Japan1.8131" 
d="M222 855v-5q-112 -150 -112 -470q0 -321 112 -470v-5h-85q-112 146 -112 475t112 475h85zM778 -95v5q112 150 112 470q0 321 -112 470v5h85q112 -146 112 -475t-112 -475h-85zM393 667l148 47v-144h118v-108h-118v-226q0 -45 16 -64.5t47 -19.5q25 0 46 4l1 -119
q-30 -10 -98 -10q-75 0 -113 39q-47 45 -47 158v238h-72v108h72v97z" />
    <glyph glyph-name="Japan1.8132" 
d="M222 855v-5q-112 -150 -112 -470q0 -321 112 -470v-5h-85q-112 146 -112 475t112 475h85zM778 -95v5q112 150 112 470q0 321 -112 470v5h85q112 -146 112 -475t-112 -475h-85zM697 629v-372q0 -31 2 -89.5t2 -74.5h-130l-8 53h-2q-43 -60 -119 -60q-75 0 -107 54t-32 165
v324h148v-305q0 -109 49 -109q25 0 37 22.5t12 51.5v340h148z" />
    <glyph glyph-name="Japan1.8133" 
d="M222 855v-5q-112 -150 -112 -470q0 -321 112 -470v-5h-85q-112 146 -112 475t112 475h85zM778 -95v5q112 150 112 470q0 321 -112 470v5h85q112 -146 112 -475t-112 -475h-85zM271 629h161l47 -230q12 -62 26 -152h3q13 82 28 152l47 230h146l-158 -536h-139z" />
    <glyph glyph-name="Japan1.8134" 
d="M222 855v-5q-112 -150 -112 -470q0 -321 112 -470v-5h-85q-112 146 -112 475t112 475h85zM778 -95v5q112 150 112 470q0 321 -112 470v5h85q112 -146 112 -475t-112 -475h-85zM221 629h126l40 -239q0 -4 6.5 -58t7.5 -77h3q8 104 13 131l39 243h103l39 -240
q13 -73 16 -134h4q3 59 15 132l35 242h111l-113 -536h-107l-30 173q-20 103 -22 168h-3q-7 -80 -22 -170l-31 -171h-116z" />
    <glyph glyph-name="Japan1.8135" 
d="M222 855v-5q-112 -150 -112 -470q0 -321 112 -470v-5h-85q-112 146 -112 475t112 475h85zM778 -95v5q112 150 112 470q0 321 -112 470v5h85q112 -146 112 -475t-112 -475h-85zM283 629h162l32 -104q14 -48 28 -101h3q13 55 25 101l29 104h151l-118 -265l121 -271h-161
l-38 111q-14 41 -27 91h-4q-9 -42 -22 -92l-35 -110h-146l114 266z" />
    <glyph glyph-name="Japan1.8136" 
d="M222 855v-5q-112 -150 -112 -470q0 -321 112 -470v-5h-85q-112 146 -112 475t112 475h85zM778 -95v5q112 150 112 470q0 321 -112 470v5h85q112 -146 112 -475t-112 -475h-85zM285 698h161l53 -274q2 -16 7 -44.5t7 -41.5h2q2 14 5.5 42.5t5.5 41.5l46 276h145l-115 -423
q-48 -181 -115 -261q-31 -36 -67 -57.5t-60 -27.5l-43 129q42 14 72 43t40 50.5t10 31.5q0 14 -5 32z" />
    <glyph glyph-name="Japan1.8137" 
d="M222 855v-5q-112 -150 -112 -470q0 -321 112 -470v-5h-85q-112 146 -112 475t112 475h85zM778 -95v5q112 150 112 470q0 321 -112 470v5h85q112 -146 112 -475t-112 -475h-85zM314 93v96l138 222q32 53 58 90v3h-180v125h349v-105l-132 -213q-27 -44 -59 -90v-3h197v-125
h-371z" />
    <glyph glyph-name="Japan1.8184" 
d="M185 323v345h-1l-92 -41l-20 96l134 57h101v-457h-122zM288 -27h-93l443 814h93zM930 -21h-354v79l69 56q83 69 117.5 108t35.5 71q0 26 -19.5 43t-47.5 17q-54 0 -104 -47l-43 86q71 63 164 63q73 0 123 -41t50 -114q0 -53 -34 -101t-75 -75l-62 -40v-1h180v-104z" />
    <glyph glyph-name="Japan1.8185" 
d="M867 -21h-119v105h-218v87l166 276h171v-269h69v-94h-69v-105zM640 178h114v90q0 21 4 101h-15q-36 -69 -56 -104zM178 323v345h-1l-92 -41l-20 96l134 57h101v-457h-122zM291 -27h-93l443 814h93z" />
    <glyph glyph-name="Japan1.8224" 
d="M975 380q0 -97 -38 -185t-102 -151.5t-151.5 -101t-183.5 -37.5q-196 0 -335.5 139.5t-139.5 335.5t139.5 335.5t335.5 139.5t335.5 -139.5t139.5 -335.5zM500 815q-181 0 -308 -128t-127 -307q0 -180 127.5 -307.5t307.5 -127.5t307.5 127.5t127.5 307.5t-127.5 307.5
t-307.5 127.5zM501 112q-56 0 -97 24t-62.5 64.5t-31.5 85t-10 93.5q0 114 49.5 191.5t151.5 77.5q55 0 95.5 -23.5t62 -64t31.5 -85t10 -94.5q0 -122 -51 -195.5t-148 -73.5zM502 224q51 0 51 156t-52 156q-54 0 -54 -164q0 -148 55 -148z" />
    <glyph glyph-name="Japan1.8225" 
d="M693 0h-197l-68 159q-10 24 -28.5 68.5t-27.5 68.5h-2q-16 -47 -49 -136l-62 -160h-192l205 390l-198 386h196l64 -158q36 -94 48 -127h3q7 21 14.5 42t16 45t13.5 39l59 159h193l-197 -378zM737 776h172v-776h-172v776z" />
    <glyph glyph-name="Japan1.8226" 
d="M383 776h337v-776h-328l-52 154q-11 31 -43 133h-2q-13 -50 -38 -132l-47 -155h-188l178 391l-172 385h187l51 -156l39 -126h2l32 125zM778 0v776h162v-776h-162zM558 745l-157 -344l157 -346v690z" />
    <glyph glyph-name="Japan1.8227" 
d="M500 27q-51 0 -92 20.5t-67.5 54t-44 79.5t-25 94.5t-7.5 101.5q0 100 24 177.5t79.5 127t135.5 49.5q64 0 111.5 -30t73 -81.5t37 -110.5t11.5 -127q0 -167 -62 -261t-174 -94zM502 155q73 0 73 225q0 223 -73 223q-77 0 -77 -231q0 -217 77 -217zM227 855v-5
q-112 -150 -112 -470q0 -321 112 -470v-5h-90q-112 146 -112 475t112 475h90zM773 -95v5q112 150 112 470q0 321 -112 470v5h90q112 -146 112 -475t-112 -475h-90z" />
    <glyph glyph-name="Japan1.8228" 
d="M708 782l110 -76l-59 -82q51 -98 51 -241q0 -112 -31 -199t-102.5 -142.5t-177.5 -55.5q-97 0 -168 48l-39 -54l-110 76l60 83q-52 98 -52 242q0 112 32 199t103.5 141.5t175.5 54.5q98 0 168 -48zM388 340l183 252q-28 40 -71 40q-53 0 -83 -63.5t-30 -186.5
q0 -29 1 -42zM612 422l-182 -251q26 -41 69 -41q34 0 58 23.5t35.5 63.5t16 79.5t4.5 85.5q0 27 -1 40z" />
    <glyph glyph-name="Japan1.8286" 
d="M500 855q97 0 185 -38t151.5 -102t101 -151.5t37.5 -183.5q0 -196 -139.5 -335.5t-335.5 -139.5t-335.5 139.5t-139.5 335.5t139.5 335.5t335.5 139.5zM444 501v-382h152v520h-128l-155 -67l25 -117z" />
    <glyph glyph-name="Japan1.8287" 
d="M500 855q97 0 185 -38t151.5 -102t101 -151.5t37.5 -183.5q0 -196 -139.5 -335.5t-335.5 -139.5t-335.5 139.5t-139.5 335.5t139.5 335.5t335.5 139.5zM302 119h396v129h-174v1l53 41q112 87 112 187q0 81 -53 126.5t-146 45.5q-108 0 -186 -55l42 -113q61 43 112 43
q36 0 55 -16t19 -43q-1 -35 -36 -75t-119 -111l-75 -65v-95z" />
    <glyph glyph-name="Japan1.8288" 
d="M500 855q97 0 185 -38t151.5 -102t101 -151.5t37.5 -183.5q0 -196 -139.5 -335.5t-335.5 -139.5t-335.5 139.5t-139.5 335.5t139.5 335.5t335.5 139.5zM330 263l-29 -117q61 -37 168 -37q103 0 166 44t63 117q0 48 -31.5 81.5t-79.5 41.5v2q95 33 95 120q0 59 -51.5 96.5
t-137.5 37.5q-112 0 -178 -39l29 -113q53 29 112 29q67 0 67 -38q0 -41 -77 -41h-53v-111h57q35 0 60 -15t25 -41q0 -48 -80 -48q-57 0 -125 31z" />
    <glyph glyph-name="Japan1.8289" 
d="M500 855q97 0 185 -38t151.5 -102t101 -151.5t37.5 -183.5q0 -196 -139.5 -335.5t-335.5 -139.5t-335.5 139.5t-139.5 335.5t139.5 335.5t335.5 139.5zM500 119h148v111h55v116h-55v293h-198l-174 -308v-101h224v-111zM500 422v-76h-83l35 74q33 68 49 110h3
q-4 -76 -4 -108z" />
    <glyph glyph-name="Japan1.8290" 
d="M500 855q97 0 185 -38t151.5 -102t101 -151.5t37.5 -183.5q0 -196 -139.5 -335.5t-335.5 -139.5t-335.5 139.5t-139.5 335.5t139.5 335.5t335.5 139.5zM672 511v128h-313l-34 -289q37 5 68 5q146 0 146 -68q0 -57 -92 -57q-64 0 -122 24l-25 -117q64 -28 156 -28
q119 0 181.5 53.5t62.5 131.5q0 87 -56 130q-55 42 -154 44q-17 0 -29 -1l6 44h205z" />
    <glyph glyph-name="Japan1.8291" 
d="M500 855q97 0 185 -38t151.5 -102t101 -151.5t37.5 -183.5q0 -196 -139.5 -335.5t-335.5 -139.5t-335.5 139.5t-139.5 335.5t139.5 335.5t335.5 139.5zM446 438l-1 1q13 40 56.5 64.5t105.5 24.5q34 0 51 -2v120q-39 3 -50 3q-62 0 -116 -15.5t-102.5 -49t-77 -97.5
t-28.5 -151q0 -95 53.5 -161t160.5 -66q90 0 149.5 55t59.5 134q0 78 -49.5 121.5t-118.5 43.5q-62 0 -93 -25zM501 223q-29 0 -42.5 22.5t-13.5 51.5q0 13 1 20.5t5 17.5t15 15t29 5q26 0 41 -17.5t15 -50.5q0 -29 -14.5 -46.5t-35.5 -17.5z" />
    <glyph glyph-name="Japan1.8292" 
d="M500 855q97 0 185 -38t151.5 -102t101 -151.5t37.5 -183.5q0 -196 -139.5 -335.5t-335.5 -139.5t-335.5 139.5t-139.5 335.5t139.5 335.5t335.5 139.5zM703 639h-396v-129h229v-1l-208 -390h168l207 423v97z" />
    <glyph glyph-name="Japan1.8293" 
d="M500 855q97 0 185 -38t151.5 -102t101 -151.5t37.5 -183.5q0 -196 -139.5 -335.5t-335.5 -139.5t-335.5 139.5t-139.5 335.5t139.5 335.5t335.5 139.5zM622 399v1q69 38 69 111q0 54 -46.5 96t-140.5 42q-87 0 -143 -42.5t-56 -109.5q0 -74 71 -113v-2q-87 -38 -87 -125
q0 -58 52 -103t155 -45q100 0 158 44.5t58 118.5q0 48 -27 80.5t-63 46.5zM499 545q25 0 36.5 -15.5t11.5 -35.5q0 -17 -11.5 -31.5t-24.5 -16.5q-57 20 -57 54q0 19 12 32t33 13zM503 215q-23 0 -38 17t-15 39q0 47 42 58q26 -7 43.5 -25t17.5 -42q0 -20 -13 -33.5
t-37 -13.5z" />
    <glyph glyph-name="Japan1.8294" 
d="M500 855q97 0 185 -38t151.5 -102t101 -151.5t37.5 -183.5q0 -196 -139.5 -335.5t-335.5 -139.5t-335.5 139.5t-139.5 335.5t139.5 335.5t335.5 139.5zM342 232v-120q39 -3 50 -3q62 0 116 15.5t102.5 49t77 97.5t28.5 151q0 95 -53.5 161t-160.5 66q-90 0 -149.5 -55
t-59.5 -134q0 -78 49.5 -121.5t118.5 -43.5q62 0 93 25l1 -1q-13 -40 -56.5 -64.5t-105.5 -24.5q-34 0 -51 2zM499 535q23 0 36.5 -15t16.5 -29.5t3 -29.5q0 -13 -1 -20.5t-5 -17.5t-15 -15t-29 -5q-26 0 -41 17.5t-15 50.5q0 29 14.5 46.5t35.5 17.5z" />
    <glyph glyph-name="Japan1.8295" 
d="M320 776h285v-776h-274l-45 151q-30 108 -36 130h-1q-6 -24 -18 -70t-15 -59l-40 -152h-161l150 387l-145 389h164l42 -152q4 -16 14.5 -57t16.5 -65h2l26 122zM475 745l-133 -344l133 -349v693zM775 0h-130v776h130v-776zM815 0v776h130v-776h-130z" />
    <glyph glyph-name="Japan1.8296" 
d="M801 458l34 318h150l-137 -776h-155l-125 740h-1l1 -740h-272l-37 146q-30 123 -31 127h-1l-62 -273h-150l133 388l-128 388h146l38 -147q26 -102 30 -118h1q15 76 25 118l32 147h424l34 -316q9 -84 24 -249h2q9 102 25 247zM438 767l-124 -363l124 -371v734z" />
    <glyph glyph-name="Japan1.8297" 
d="M764 459l45 317h171l-166 -776h-181l-143 700l-118 -296l158 -404h-184l-42 144q-17 59 -35 124h-1q-28 -111 -31 -123l-38 -145h-179l154 387l-148 389h182l39 -146q21 -81 30 -117h2q5 25 13.5 65t10.5 52l33 146h313l46 -314q23 -176 33 -249h2q20 156 34 246z" />
    <glyph glyph-name="Japan1.8298" 
d="M798 643q-46 0 -71 27.5t-25 65.5q0 40 26 66.5t70 26.5t70 -26.5t26 -66.5t-26.5 -66.5t-69.5 -26.5zM91 564h194l45 -90q22 -44 47 -96h3q24 55 45 99l42 87h183l-173 -268l175 -296h-193l-48 96q-38 79 -46 97h-3q-16 -39 -43 -95l-47 -98h-185l178 288zM884 0h-172
v564h172v-564z" />
    <glyph glyph-name="Japan1.8299" 
d="M383 564h330v-564h-339l-45 96q-4 10 -20 44.5t-24 52.5h-2q-15 -37 -41 -95l-45 -98h-182l171 288l-167 276h192l42 -90q1 -3 19 -40.5t26 -55.5h2l43 99zM551 543l-152 -246l152 -270v516zM632 655q-42 0 -66 25t-24 62q0 38 24.5 62.5t65.5 24.5t65.5 -24.5
t24.5 -62.5t-25 -62.5t-65 -24.5zM859 655q-42 0 -66 25t-24 62q0 38 24.5 62.5t65.5 24.5t65.5 -24.5t24.5 -62.5t-24.5 -62.5t-65.5 -24.5zM940 0h-162v564h162v-564z" />
    <glyph glyph-name="Japan1.8300" 
d="M331 564h274v-564h-282l-37 94q-8 20 -35 94h-3q-16 -47 -33 -92l-37 -96h-163l146 288l-143 276h174l70 -182h2q12 36 35 97zM475 528l-122 -231l122 -255v486zM540 664q-34 0 -53.5 24t-19.5 59q0 36 20 59t53 23t53 -23t20 -59t-20 -59.5t-53 -23.5zM710 664
q-34 0 -53.5 24t-19.5 59q0 36 20 59t53 23t53 -23t20 -59t-20 -59.5t-53 -23.5zM880 664q-34 0 -53.5 24t-19.5 59q0 36 20 59t53 23t53 -23t20 -59t-20 -59.5t-53 -23.5zM775 0h-130v564h130v-564zM945 0h-130v564h130v-564z" />
    <glyph glyph-name="Japan1.8301" 
d="M497 664q-34 0 -53.5 24t-19.5 59q0 36 20 59t53 23t53 -23t20 -59t-20 -59.5t-53 -23.5zM794 335l40 229h151l-155 -564h-123l-145 535v-535h-280l-29 89q-1 3 -28 90h-2q-16 -56 -26 -88l-29 -91h-153l126 288l-123 276h162l27 -85q20 -64 28 -91h2q8 29 28 94l26 82
h417l43 -229l21 -122h2zM432 542l-112 -243l112 -272v515z" />
    <glyph glyph-name="Japan1.8302" 
d="M757 334l52 230h176l-186 -564h-146l-159 491l-114 -194l158 -297h-188l-40 94q-13 30 -38 95h-3q-9 -24 -35 -93l-40 -96h-179l162 288l-159 276h190l37 -88q4 -10 18.5 -44t20.5 -51h2q17 47 38 98l34 85h293l53 -230q19 -89 26 -123h3q4 23 12.5 64t11.5 59z" />
    <glyph glyph-name="Japan1.9780" 
d="M222 363q-100 0 -148.5 63t-48.5 161q0 95 47.5 159t148.5 64q98 0 148.5 -63t50.5 -162q0 -42 -10.5 -79t-32 -70.5t-61.5 -53t-94 -19.5zM221 460q27 0 42 33.5t15 92.5q0 125 -57 125q-56 0 -56 -125q0 -62 15 -94t41 -32zM800 810l-506 -860h-95l506 860h95zM871 182
v-1q43 -2 73.5 -29.5t30.5 -67.5q0 -66 -58 -100t-152 -34q-111 0 -171 38l31 103q72 -32 129 -32q22 0 34.5 1.5t24 9.5t11.5 23q0 17 -19.5 29t-46.5 12h-70v99h68q23 -1 41.5 6.5t18.5 22.5q0 26 -62 26q-54 0 -118 -30l-32 100q63 39 181 39q79 0 127 -31t48 -82
q0 -75 -89 -102z" />
    <glyph glyph-name="Japan1.9781" 
d="M182 366v319h-2l-95 -40l-22 102l143 58h110v-439h-134zM800 810l-506 -860h-95l506 860h95zM594 -12l31 103q72 -32 129 -32q22 0 34.5 1.5t24 9.5t11.5 23q0 17 -19.5 29t-46.5 12h-70v99h68q23 -1 41.5 6.5t18.5 22.5q0 26 -62 26q-54 0 -118 -30l-32 100
q63 39 181 39q79 0 127 -31t48 -82q0 -75 -89 -102v-1q43 -2 73.5 -29.5t30.5 -67.5q0 -66 -58 -100t-152 -34q-111 0 -171 38z" />
    <glyph glyph-name="Japan1.9782" 
d="M400 372h-373v80l71 51q84 60 117.5 91.5t33.5 55.5q0 50 -68 50q-51 0 -110 -44l-46 97q75 57 187 57q78 0 128.5 -36.5t50.5 -112.5t-89 -136l-57 -39v-1h155v-113zM800 810l-506 -860h-95l506 860h95zM594 -12l31 103q72 -32 129 -32q22 0 34.5 1.5t24 9.5t11.5 23
q0 17 -19.5 29t-46.5 12h-70v99h68q23 -1 41.5 6.5t18.5 22.5q0 26 -62 26q-54 0 -118 -30l-32 100q63 39 181 39q79 0 127 -31t48 -82q0 -75 -89 -102v-1q43 -2 73.5 -29.5t30.5 -67.5q0 -66 -58 -100t-152 -34q-111 0 -171 38z" />
    <glyph glyph-name="Japan1.9783" 
d="M925 -47h-137v99h-208v89l144 247h201v-236h50v-100h-50v-99zM706 152h82v60q0 29 2 107h-3q-11 -25 -40 -83l-41 -81v-3zM25 403l31 102q72 -32 129 -32q33 0 51.5 5.5t18.5 25.5q0 16 -19.5 26t-46.5 10h-70v99h68q22 -1 41 7.5t19 24.5q0 31 -62 31q-54 0 -118 -30
l-32 99q63 39 181 39q79 0 127 -31.5t48 -85.5q0 -82 -89 -104v-3q43 -2 73.5 -28t30.5 -65q0 -64 -58 -96t-152 -32q-111 0 -171 38zM800 810l-506 -860h-95l506 860h95z" />
    <glyph glyph-name="Japan1.9784" 
d="M182 366v319h-2l-95 -40l-22 102l143 58h110v-439h-134zM800 810l-506 -860h-95l506 860h95zM944 388v-113h-205l-5 -26q12 1 31 1q210 0 210 -148q0 -69 -56.5 -110.5t-169.5 -41.5q-92 0 -158 26l27 106q56 -23 125 -23q18 0 29.5 1t25.5 4.5t21.5 12.5t7.5 23
q0 50 -139 50q-39 0 -75 -6l31 244h300z" />
    <glyph glyph-name="Japan1.9785" 
d="M400 372h-373v80l71 51q84 60 117.5 91.5t33.5 55.5q0 50 -68 50q-51 0 -110 -44l-46 97q75 57 187 57q78 0 128.5 -36.5t50.5 -112.5t-89 -136l-57 -39v-1h155v-113zM800 810l-506 -860h-95l506 860h95zM944 388v-113h-205l-5 -26q12 1 31 1q210 0 210 -148
q0 -69 -56.5 -110.5t-169.5 -41.5q-92 0 -158 26l27 106q56 -23 125 -23q18 0 29.5 1t25.5 4.5t21.5 12.5t7.5 23q0 50 -139 50q-39 0 -75 -6l31 244h300z" />
    <glyph glyph-name="Japan1.9786" 
d="M25 403l31 102q72 -32 129 -32q33 0 51.5 5.5t18.5 25.5q0 16 -19.5 26t-46.5 10h-70v99h68q22 -1 41 7.5t19 24.5q0 31 -62 31q-54 0 -118 -30l-32 99q63 39 181 39q79 0 127 -31.5t48 -85.5q0 -82 -89 -104v-3q43 -2 73.5 -28t30.5 -65q0 -64 -58 -96t-152 -32
q-111 0 -171 38zM800 810l-506 -860h-95l506 860h95zM944 388v-113h-205l-5 -26q12 1 31 1q210 0 210 -148q0 -69 -56.5 -110.5t-169.5 -41.5q-92 0 -158 26l27 106q56 -23 125 -23q18 0 29.5 1t25.5 4.5t21.5 12.5t7.5 23q0 50 -139 50q-39 0 -75 -6l31 244h300z" />
    <glyph glyph-name="Japan1.9787" 
d="M370 363h-137v99h-208v89l144 247h201v-236h50v-100h-50v-99zM151 562h82v60q0 29 2 107h-3q-11 -25 -40 -83l-41 -81v-3zM800 810l-506 -860h-95l506 860h95zM944 388v-113h-205l-5 -26q12 1 31 1q210 0 210 -148q0 -69 -56.5 -110.5t-169.5 -41.5q-92 0 -158 26l27 106
q56 -23 125 -23q18 0 29.5 1t25.5 4.5t21.5 12.5t7.5 23q0 50 -139 50q-39 0 -75 -6l31 244h300z" />
    <glyph glyph-name="Japan1.9788" 
d="M918 394v-108q-14 3 -34 3q-140 0 -167 -55h2q33 20 97 20q63 0 111 -37.5t48 -108.5q0 -73 -57 -115.5t-135 -42.5q-57 0 -99.5 18.5t-65.5 49t-34 63t-11 66.5q0 113 77 180q44 38 98 53t139 15q23 0 31 -1zM780 52q21 0 35.5 13.5t14.5 37.5t-16.5 38.5t-43.5 14.5
q-25 0 -42 -14.5t-17 -33.5t18.5 -37.5t50.5 -18.5zM182 366v319h-2l-95 -40l-22 102l143 58h110v-439h-134zM800 810l-506 -860h-95l506 860h95z" />
    <glyph glyph-name="Japan1.9789" 
d="M918 394v-108q-14 3 -34 3q-140 0 -167 -55h2q33 20 97 20q63 0 111 -37.5t48 -108.5q0 -73 -57 -115.5t-135 -42.5q-57 0 -99.5 18.5t-65.5 49t-34 63t-11 66.5q0 113 77 180q44 38 98 53t139 15q23 0 31 -1zM780 52q21 0 35.5 13.5t14.5 37.5t-16.5 38.5t-43.5 14.5
q-25 0 -42 -14.5t-17 -33.5t18.5 -37.5t50.5 -18.5zM800 810l-506 -860h-95l506 860h95zM378 796v-113h-205l-5 -26q12 1 31 1q210 0 210 -148q0 -69 -56.5 -110.5t-169.5 -41.5q-92 0 -158 26l27 106q56 -23 125 -23q18 0 29.5 1t25.5 4.5t21.5 12.5t7.5 23q0 50 -139 50
q-39 0 -75 -6l31 244h300z" />
    <glyph glyph-name="Japan1.9790" 
d="M182 366v319h-2l-95 -40l-22 102l143 58h110v-439h-134zM800 810l-506 -860h-95l506 860h95zM601 388h374v-84l-196 -351h-159l201 319v3h-220v113z" />
    <glyph glyph-name="Japan1.9791" 
d="M400 372h-373v80l71 51q84 60 117.5 91.5t33.5 55.5q0 50 -68 50q-51 0 -110 -44l-46 97q75 57 187 57q78 0 128.5 -36.5t50.5 -112.5t-89 -136l-57 -39v-1h155v-113zM800 810l-506 -860h-95l506 860h95zM601 388h374v-84l-196 -351h-159l201 319v3h-220v113z" />
    <glyph glyph-name="Japan1.9792" 
d="M25 403l31 102q72 -32 129 -32q33 0 51.5 5.5t18.5 25.5q0 16 -19.5 26t-46.5 10h-70v99h68q22 -1 41 7.5t19 24.5q0 31 -62 31q-54 0 -118 -30l-32 99q63 39 181 39q79 0 127 -31.5t48 -85.5q0 -82 -89 -104v-3q43 -2 73.5 -28t30.5 -65q0 -64 -58 -96t-152 -32
q-111 0 -171 38zM800 810l-506 -860h-95l506 860h95zM601 388h374v-84l-196 -351h-159l201 319v3h-220v113z" />
    <glyph glyph-name="Japan1.9793" 
d="M370 363h-137v99h-208v89l144 247h201v-236h50v-100h-50v-99zM151 562h82v60q0 29 2 107h-3q-11 -25 -40 -83l-41 -81v-3zM800 810l-506 -860h-95l506 860h95zM601 388h374v-84l-196 -351h-159l201 319v3h-220v113z" />
    <glyph glyph-name="Japan1.9794" 
d="M800 810l-506 -860h-95l506 860h95zM378 796v-113h-205l-5 -26q12 1 31 1q210 0 210 -148q0 -69 -56.5 -110.5t-169.5 -41.5q-92 0 -158 26l27 106q56 -23 125 -23q18 0 29.5 1t25.5 4.5t21.5 12.5t7.5 23q0 50 -139 50q-39 0 -75 -6l31 244h300zM601 388h374v-84
l-196 -351h-159l201 319v3h-220v113z" />
    <glyph glyph-name="Japan1.9795" 
d="M370 807v-108q-14 3 -34 3q-140 0 -167 -55h2q33 20 97 20q63 0 111 -37.5t48 -108.5q0 -73 -57 -115.5t-135 -42.5q-57 0 -99.5 18.5t-65.5 49t-34 63t-11 66.5q0 113 77 180q44 38 98 53t139 15q23 0 31 -1zM232 465q21 0 35.5 13.5t14.5 37.5t-16.5 38.5t-43.5 14.5
q-25 0 -42 -14.5t-17 -33.5t18.5 -37.5t50.5 -18.5zM800 810l-506 -860h-95l506 860h95zM601 388h374v-84l-196 -351h-159l201 319v3h-220v113z" />
    <glyph glyph-name="Japan1.9796" 
d="M895 188v-1q80 -27 80 -101q0 -59 -52.5 -97.5t-150.5 -38.5q-54 0 -94.5 13t-60 33.5t-28.5 39t-9 35.5q0 70 78 99v1q-62 32 -62 94q0 58 51 94t130 36q52 0 89.5 -12.5t54.5 -32.5t24.5 -37.5t7.5 -33.5q0 -32 -17.5 -55.5t-40.5 -35.5zM774 301q-43 0 -43 -32
q0 -25 54 -40q12 2 23.5 11.5t11.5 21.5q0 17 -12 28t-34 11zM779 47q48 0 48 27q0 35 -55 48q-42 -5 -42 -39q0 -14 15 -25t34 -11zM800 810l-506 -860h-95l506 860h95zM182 366v319h-2l-95 -40l-22 102l143 58h110v-439h-134z" />
    <glyph glyph-name="Japan1.9797" 
d="M895 188v-1q80 -27 80 -101q0 -59 -52.5 -97.5t-150.5 -38.5q-54 0 -94.5 13t-60 33.5t-28.5 39t-9 35.5q0 70 78 99v1q-62 32 -62 94q0 58 51 94t130 36q52 0 89.5 -12.5t54.5 -32.5t24.5 -37.5t7.5 -33.5q0 -32 -17.5 -55.5t-40.5 -35.5zM774 301q-43 0 -43 -32
q0 -25 54 -40q12 2 23.5 11.5t11.5 21.5q0 17 -12 28t-34 11zM779 47q48 0 48 27q0 35 -55 48q-42 -5 -42 -39q0 -14 15 -25t34 -11zM302 589v-3q43 -2 73.5 -28t30.5 -65q0 -64 -58 -96t-152 -32q-111 0 -171 38l31 102q72 -32 129 -32q33 0 51.5 5.5t18.5 25.5
q0 16 -19.5 26t-46.5 10h-70v99h68q22 -1 41 7.5t19 24.5q0 31 -62 31q-54 0 -118 -30l-32 99q63 39 181 39q79 0 127 -31.5t48 -85.5q0 -82 -89 -104zM800 810l-506 -860h-95l506 860h95z" />
    <glyph glyph-name="Japan1.9798" 
d="M895 188v-1q80 -27 80 -101q0 -59 -52.5 -97.5t-150.5 -38.5q-54 0 -94.5 13t-60 33.5t-28.5 39t-9 35.5q0 70 78 99v1q-62 32 -62 94q0 58 51 94t130 36q52 0 89.5 -12.5t54.5 -32.5t24.5 -37.5t7.5 -33.5q0 -32 -17.5 -55.5t-40.5 -35.5zM774 301q-43 0 -43 -32
q0 -25 54 -40q12 2 23.5 11.5t11.5 21.5q0 17 -12 28t-34 11zM779 47q48 0 48 27q0 35 -55 48q-42 -5 -42 -39q0 -14 15 -25t34 -11zM800 810l-506 -860h-95l506 860h95zM378 803v-113h-205l-5 -26q12 1 31 1q210 0 210 -148q0 -69 -56.5 -110.5t-169.5 -41.5q-92 0 -158 26
l27 106q56 -23 125 -23q18 0 29.5 1t25.5 4.5t21.5 12.5t7.5 23q0 50 -139 50q-39 0 -75 -6l31 244h300z" />
    <glyph glyph-name="Japan1.9799" 
d="M895 188v-1q80 -27 80 -101q0 -59 -52.5 -97.5t-150.5 -38.5q-54 0 -94.5 13t-60 33.5t-28.5 39t-9 35.5q0 70 78 99v1q-62 32 -62 94q0 58 51 94t130 36q52 0 89.5 -12.5t54.5 -32.5t24.5 -37.5t7.5 -33.5q0 -32 -17.5 -55.5t-40.5 -35.5zM774 301q-43 0 -43 -32
q0 -25 54 -40q12 2 23.5 11.5t11.5 21.5q0 17 -12 28t-34 11zM779 47q48 0 48 27q0 35 -55 48q-42 -5 -42 -39q0 -14 15 -25t34 -11zM800 810l-506 -860h-95l506 860h95zM25 803h374v-84l-196 -351h-159l201 319v3h-220v113z" />
    <glyph glyph-name="Japan1.9800" 
d="M630 -49v108q15 -3 34 -3q140 0 167 55h-2q-33 -20 -97 -20q-63 0 -110.5 37.5t-47.5 108.5q0 73 56.5 115.5t134.5 42.5q57 0 100 -18.5t65.5 -49t33.5 -63t11 -66.5q0 -113 -77 -180q-44 -38 -97.5 -53t-138.5 -15q-23 0 -32 1zM768 293q-21 0 -35.5 -13.5t-14.5 -37.5
t16.5 -38.5t43.5 -14.5q28 0 44 16t16 32q0 19 -19 37.5t-51 18.5zM182 368v319h-2l-95 -40l-22 102l143 58h110v-439h-134zM800 810l-506 -860h-95l506 860h95z" />
    <glyph glyph-name="Japan1.9801" 
d="M630 -49v108q15 -3 34 -3q140 0 167 55h-2q-33 -20 -97 -20q-63 0 -110.5 37.5t-47.5 108.5q0 73 56.5 115.5t134.5 42.5q57 0 100 -18.5t65.5 -49t33.5 -63t11 -66.5q0 -113 -77 -180q-44 -38 -97.5 -53t-138.5 -15q-23 0 -32 1zM768 293q-21 0 -35.5 -13.5t-14.5 -37.5
t16.5 -38.5t43.5 -14.5q28 0 44 16t16 32q0 19 -19 37.5t-51 18.5zM400 372h-373v80l71 51q84 60 117.5 91.5t33.5 55.5q0 50 -68 50q-51 0 -110 -44l-46 97q75 57 187 57q78 0 128.5 -36.5t50.5 -112.5t-89 -136l-57 -39v-1h155v-113zM800 810l-506 -860h-95l506 860h95z
" />
    <glyph glyph-name="Japan1.9802" 
d="M370 363h-137v99h-208v89l144 247h201v-236h50v-100h-50v-99zM151 562h82v60q0 29 2 107h-3q-11 -25 -40 -83l-41 -81v-3zM630 -49v108q15 -3 34 -3q140 0 167 55h-2q-33 -20 -97 -20q-63 0 -110.5 37.5t-47.5 108.5q0 73 56.5 115.5t134.5 42.5q57 0 100 -18.5t65.5 -49
t33.5 -63t11 -66.5q0 -113 -77 -180q-44 -38 -97.5 -53t-138.5 -15q-23 0 -32 1zM768 293q-21 0 -35.5 -13.5t-14.5 -37.5t16.5 -38.5t43.5 -14.5q28 0 44 16t16 32q0 19 -19 37.5t-51 18.5zM800 810l-506 -860h-95l506 860h95z" />
    <glyph glyph-name="Japan1.9803" 
d="M630 -49v108q15 -3 34 -3q140 0 167 55h-2q-33 -20 -97 -20q-63 0 -110.5 37.5t-47.5 108.5q0 73 56.5 115.5t134.5 42.5q57 0 100 -18.5t65.5 -49t33.5 -63t11 -66.5q0 -113 -77 -180q-44 -38 -97.5 -53t-138.5 -15q-23 0 -32 1zM768 293q-21 0 -35.5 -13.5t-14.5 -37.5
t16.5 -38.5t43.5 -14.5q28 0 44 16t16 32q0 19 -19 37.5t-51 18.5zM800 810l-506 -860h-95l506 860h95zM378 796v-113h-205l-5 -26q12 1 31 1q210 0 210 -148q0 -69 -56.5 -110.5t-169.5 -41.5q-92 0 -158 26l27 106q56 -23 125 -23q18 0 29.5 1t25.5 4.5t21.5 12.5t7.5 23
q0 50 -139 50q-39 0 -75 -6l31 244h300z" />
    <glyph glyph-name="Japan1.9804" 
d="M630 -49v108q15 -3 34 -3q140 0 167 55h-2q-33 -20 -97 -20q-63 0 -110.5 37.5t-47.5 108.5q0 73 56.5 115.5t134.5 42.5q57 0 100 -18.5t65.5 -49t33.5 -63t11 -66.5q0 -113 -77 -180q-44 -38 -97.5 -53t-138.5 -15q-23 0 -32 1zM768 293q-21 0 -35.5 -13.5t-14.5 -37.5
t16.5 -38.5t43.5 -14.5q28 0 44 16t16 32q0 19 -19 37.5t-51 18.5zM800 810l-506 -860h-95l506 860h95zM25 803h374v-84l-196 -351h-159l201 319v3h-220v113z" />
    <glyph glyph-name="Japan1.9805" 
d="M340 603v-1q80 -27 80 -101q0 -59 -52.5 -97.5t-150.5 -38.5q-54 0 -94.5 13t-60 33.5t-28.5 39t-9 35.5q0 70 78 99v1q-62 32 -62 94q0 58 51 94t130 36q52 0 89.5 -12.5t54.5 -32.5t24.5 -37.5t7.5 -33.5q0 -32 -17.5 -55.5t-40.5 -35.5zM219 716q-43 0 -43 -32
q0 -25 54 -40q12 2 23.5 11.5t11.5 21.5q0 17 -12 28t-34 11zM224 462q48 0 48 27q0 35 -55 48q-42 -5 -42 -39q0 -14 15 -25t34 -11zM831 111h-2q-33 -20 -97 -20q-63 0 -110.5 37.5t-47.5 108.5q0 73 56.5 115.5t134.5 42.5q57 0 100 -18.5t65.5 -49t33.5 -63t11 -66.5
q0 -113 -77 -180q-44 -38 -97.5 -53t-138.5 -15q-23 0 -32 1v108q15 -3 34 -3q140 0 167 55zM768 293q-21 0 -35.5 -13.5t-14.5 -37.5t16.5 -38.5t43.5 -14.5q28 0 44 16t16 32q0 19 -19 37.5t-51 18.5zM800 810l-506 -860h-95l506 860h95z" />
    <glyph glyph-name="Japan1.9806" 
d="M830 -50q-80 0 -112.5 57.5t-32.5 165.5q0 107 32 164.5t112 57.5q78 0 112 -57.5t34 -166.5q0 -102 -32 -161.5t-113 -59.5zM830 48q25 0 25 125q0 124 -25 124t-25 -124q1 -125 25 -125zM716 810l-506 -860h-95l506 860h95zM146 366v319h-2l-85 -40l-20 102l129 58h99
v-439h-121zM534 -47v319h-2l-31 -15l-22 102l79 33h92v-439h-116z" />
    <glyph glyph-name="Japan1.9807" 
d="M830 -50q-80 0 -112.5 57.5t-32.5 165.5q0 107 32 164.5t112 57.5q78 0 112 -57.5t34 -166.5q0 -102 -32 -161.5t-113 -59.5zM830 48q25 0 25 125q0 124 -25 124t-25 -124q1 -125 25 -125zM274 589v-3q39 -2 66.5 -28t27.5 -65q0 -64 -52 -96t-137 -32q-100 0 -154 38
l28 102q64 -32 116 -32q19 0 31 1.5t22 8.5t10 21q0 15 -17.5 25.5t-41.5 10.5h-63v99h61q19 -1 36.5 7.5t17.5 24.5q0 31 -56 31q-50 0 -106 -30l-29 99q58 39 163 39q70 0 113.5 -31.5t43.5 -85.5q0 -82 -80 -104zM716 810l-506 -860h-95l506 860h95zM534 -47v319h-2
l-31 -15l-22 102l79 33h92v-439h-116z" />
    <glyph glyph-name="Japan1.9808" 
d="M830 -50q-80 0 -112.5 57.5t-32.5 165.5q0 107 32 164.5t112 57.5q78 0 112 -57.5t34 -166.5q0 -102 -32 -161.5t-113 -59.5zM830 48q25 0 25 125q0 124 -25 124t-25 -124q1 -125 25 -125zM716 810l-506 -860h-95l506 860h95zM25 803h337v-84l-177 -351h-143l181 319v3
h-198v113zM534 -47v319h-2l-31 -15l-22 102l79 33h92v-439h-116z" />
    <glyph glyph-name="Japan1.9809" 
d="M256 526h-2q-29 -20 -87 -20q-57 0 -99.5 37.5t-42.5 108.5q0 73 51 115.5t121 42.5q51 0 89.5 -18.5t59.5 -49t30.5 -63t9.5 -66.5q0 -112 -69 -180q-40 -38 -88.5 -53t-124.5 -15q-21 0 -29 1v108q13 -3 31 -3q127 0 150 55zM200 708q-19 0 -32 -14t-13 -37
q0 -24 15 -38.5t39 -14.5q25 0 39.5 17t14.5 31q0 19 -17 37.5t-46 18.5zM830 -50q-80 0 -112.5 57.5t-32.5 165.5q0 107 32 164.5t112 57.5q78 0 112 -57.5t34 -166.5q0 -102 -32 -161.5t-113 -59.5zM830 48q25 0 25 125q0 124 -25 124t-25 -124q1 -125 25 -125zM716 810
l-506 -860h-95l506 860h95zM534 -47v319h-2l-31 -15l-22 102l79 33h92v-439h-116z" />
    <glyph glyph-name="Japan1.9810" 
d="M147 368v319h-2l-85 -40l-20 102l129 58h99v-439h-121zM716 810l-506 -860h-95l506 860h95zM544 -47v319h-2l-31 -15l-22 102l79 33h92v-439h-116zM818 -47v319h-2l-31 -15l-22 102l79 33h92v-439h-116z" />
    <glyph glyph-name="Japan1.9811" 
d="M354 372h-327v80l64 51q75 60 105.5 91.5t30.5 55.5q0 50 -62 50q-45 0 -99 -44l-41 97q68 57 168 57q71 0 116 -36.5t45 -112.5q0 -77 -80 -136l-51 -39v-1h131v-113zM727 810l-506 -860h-95l506 860h95zM544 -47v319h-2l-31 -15l-22 102l79 33h92v-439h-116zM818 -47
v319h-2l-31 -15l-22 102l79 33h92v-439h-116z" />
    <glyph glyph-name="Japan1.9812" 
d="M25 403l28 102q64 -32 116 -32q19 0 31 1.5t22 8.5t10 21q0 15 -17.5 25.5t-41.5 10.5h-63v99h61q19 -1 36.5 7.5t17.5 24.5q0 31 -56 31q-50 0 -106 -30l-29 99q58 39 163 39q70 0 113.5 -31.5t43.5 -85.5q0 -82 -80 -104v-3q39 -2 66.5 -28t27.5 -65q0 -64 -52 -96
t-137 -32q-100 0 -154 38zM716 810l-506 -860h-95l506 860h95zM544 -47v319h-2l-31 -15l-22 102l79 33h92v-439h-116zM818 -47v319h-2l-31 -15l-22 102l79 33h92v-439h-116z" />
    <glyph glyph-name="Japan1.9813" 
d="M335 368h-123v99h-187v89l130 247h180v-236h45v-100h-45v-99zM138 567h74v60q0 29 2 107h-3q-14 -35 -36 -83l-37 -81v-3zM726 810l-506 -860h-95l506 860h95zM544 -47v319h-2l-31 -15l-22 102l79 33h92v-439h-116zM818 -47v319h-2l-31 -15l-22 102l79 33h92v-439h-116z
" />
    <glyph glyph-name="Japan1.9814" 
d="M716 810l-506 -860h-95l506 860h95zM343 803v-113h-185l-4 -26q10 1 28 1q92 0 142 -38q47 -36 47 -110q0 -69 -51 -110.5t-153 -41.5q-82 0 -142 26l24 106q51 -23 113 -23q22 0 35.5 2t26.5 11.5t13 28.5q0 49 -125 49q-36 0 -67 -6l28 244h270zM544 -47v319h-2
l-31 -15l-22 102l79 33h92v-439h-116zM818 -47v319h-2l-31 -15l-22 102l79 33h92v-439h-116z" />
    <glyph glyph-name="Japan1.9815" 
d="M335 809v-108q-12 3 -30 3q-127 0 -150 -55h1q31 20 88 20t100 -37.5t43 -108.5q0 -73 -51.5 -115.5t-121.5 -42.5q-51 0 -89.5 18.5t-59 49t-30.5 63t-10 66.5q0 112 69 180q39 38 88 53t126 15q20 0 27 -1zM211 467q19 0 32 14t13 37q0 24 -15 38.5t-39 14.5
q-23 0 -38 -14.5t-15 -33.5t17 -37.5t45 -18.5zM716 810l-506 -860h-95l506 860h95zM544 -47v319h-2l-31 -15l-22 102l79 33h92v-439h-116zM818 -47v319h-2l-31 -15l-22 102l79 33h92v-439h-116z" />
    <glyph glyph-name="Japan1.9816" 
d="M716 810l-506 -860h-95l506 860h95zM25 803h337v-84l-177 -351h-143l181 319v3h-198v113zM544 -47v319h-2l-31 -15l-22 102l79 33h92v-439h-116zM818 -47v319h-2l-31 -15l-22 102l79 33h92v-439h-116z" />
    <glyph glyph-name="Japan1.9817" 
d="M308 603v-1q72 -27 72 -101q0 -59 -47 -97.5t-135 -38.5q-49 0 -85 13t-54 33.5t-26 39t-8 35.5q0 70 70 99v1q-56 32 -56 94q0 58 46 94t117 36q47 0 80.5 -12.5t49.5 -32.5t22.5 -37.5t6.5 -33.5q0 -62 -53 -91zM200 716q-39 0 -39 -32q0 -25 48 -40q11 2 21.5 11.5
t10.5 21.5q0 17 -11 28t-30 11zM204 462q43 0 43 27q0 34 -49 48q-38 -5 -38 -39q0 -14 13.5 -25t30.5 -11zM720 810l-506 -860h-95l506 860h95zM544 -47v319h-2l-31 -15l-22 102l79 33h92v-439h-116zM818 -47v319h-2l-31 -15l-22 102l79 33h92v-439h-116z" />
    <glyph glyph-name="Japan1.9818" 
d="M75 366v108q13 -3 31 -3q127 0 150 55h-2q-29 -20 -87 -20q-57 0 -99.5 37.5t-42.5 108.5q0 73 51 115.5t121 42.5q51 0 89.5 -18.5t59.5 -49t30.5 -63t9.5 -66.5q0 -112 -69 -180q-40 -38 -88.5 -53t-124.5 -15q-21 0 -29 1zM200 708q-19 0 -32 -14t-13 -37
q0 -24 15 -38.5t39 -14.5q25 0 39.5 17t14.5 31q0 19 -17 37.5t-46 18.5zM716 810l-506 -860h-95l506 860h95zM544 -47v319h-2l-31 -15l-22 102l79 33h92v-439h-116zM818 -47v319h-2l-31 -15l-22 102l79 33h92v-439h-116z" />
    <glyph glyph-name="Japan1.9819" 
d="M347 365q-74 0 -104.5 57.5t-30.5 165.5q0 107 30 164.5t104 57.5q73 0 104.5 -57t31.5 -167q0 -66 -10.5 -112t-41.5 -77.5t-83 -31.5zM347 463q15 0 15 125q0 124 -15 124t-15 -124q1 -125 15 -125zM800 810l-506 -860h-95l506 860h95zM75 368v319h-2l-31 -15l-22 102
l79 33h92v-439h-116zM608 -47v319h-2l-31 -15l-22 102l79 33h92v-439h-116zM839 -47v319h-2l-31 -15l-22 102l79 33h92v-439h-116z" />
    <glyph glyph-name="Japan1.9820" 
d="M146 366v319h-2l-85 -40l-20 102l129 58h99v-439h-121zM727 810l-506 -860h-95l506 860h95zM544 -47v319h-2l-31 -15l-22 102l79 33h92v-439h-116zM975 -47h-266v78l45 51q52 59 73 92t21 57q0 50 -43 50q-15 0 -33.5 -13.5t-28.5 -30.5l-36 97q55 57 137 57
q57 0 94 -36.5t37 -112.5q0 -75 -65 -136l-42 -39v-1h107v-113z" />
    <glyph glyph-name="Japan1.9821" 
d="M727 810l-506 -860h-95l506 860h95zM343 803v-113h-185l-4 -26q10 1 28 1q92 0 142 -38q47 -36 47 -110q0 -69 -51 -110.5t-153 -41.5q-82 0 -142 26l24 106q51 -23 113 -23q22 0 35.5 2t26.5 11.5t13 28.5q0 49 -125 49q-36 0 -67 -6l28 244h270zM544 -47v319h-2
l-31 -15l-22 102l79 33h92v-439h-116zM975 -47h-266v78l45 51q52 59 73 92t21 57q0 50 -43 50q-15 0 -33.5 -13.5t-28.5 -30.5l-36 97q55 57 137 57q57 0 94 -36.5t37 -112.5q0 -75 -65 -136l-42 -39v-1h107v-113z" />
    <glyph glyph-name="Japan1.9822" 
d="M727 810l-506 -860h-95l506 860h95zM25 803h337v-84l-177 -351h-143l181 319v3h-198v113zM544 -47v319h-2l-31 -15l-22 102l79 33h92v-439h-116zM975 -47h-266v78l45 51q52 59 73 92t21 57q0 50 -43 50q-15 0 -33.5 -13.5t-28.5 -30.5l-36 97q55 57 137 57q57 0 94 -36.5
t37 -112.5q0 -75 -65 -136l-42 -39v-1h107v-113z" />
    <glyph glyph-name="Japan1.9823" 
d="M611 -47v319h-2l-31 -15l-22 102l79 33h92v-439h-116zM975 -47h-223v90l34 49q62 89 62 141q0 48 -32 48q-19 0 -38 -21l-27 92q46 39 107 39q51 0 84 -35.5t33 -102.5q0 -88 -52 -147l-35 -39v-1h87v-113zM80 371v319h-2l-31 -15l-22 102l79 33h92v-439h-116zM791 810
l-506 -860h-95l506 860h95zM292 371v319h-2l-31 -15l-22 102l79 33h92v-439h-116z" />
    <glyph glyph-name="Japan1.9824" 
d="M657 -50q-48 0 -73 52t-25 171q0 107 22 164.5t76 57.5t77 -57.5t23 -166.5q0 -221 -100 -221zM658 48q4 0 7 4t5 17t2.5 38t0.5 66q0 38 -1 62t-2.5 38t-4.5 19t-7 5q-15 0 -15 -124q1 -125 15 -125zM875 -50q-48 0 -73 52t-25 171q0 107 22 164.5t76 57.5t77 -57.5
t23 -166.5q0 -221 -100 -221zM876 48q4 0 7 4t5 17t2.5 38t0.5 66q0 38 -1 62t-2.5 38t-4.5 19t-7 5q-15 0 -15 -124q1 -125 15 -125zM626 810l-506 -860h-95l506 860h95zM80 371v319h-2l-31 -15l-22 102l79 33h92v-439h-116zM446 -47v319h-2l-31 -15l-22 102l79 33h62v-439
h-86z" />
    <glyph glyph-name="Japan1.9825" 
d="M499 465q-91 0 -135 55t-44 141q0 83 43 138.5t135 55.5q90 0 135.5 -55t45.5 -141q0 -80 -43 -137t-137 -57zM499 551q25 0 38.5 29.5t13.5 80.5q0 54 -14.5 81t-37.5 27q-51 0 -51 -108q0 -110 51 -110zM955 405v-50h-910v50h910zM577 101v-2q40 -2 67.5 -24.5
t27.5 -57.5q0 -56 -52.5 -84t-138.5 -28q-104 0 -156 33l29 90q64 -28 117 -28q64 0 64 27q0 13 -18 22.5t-42 9.5h-64v86h62q20 -1 37 6.5t17 21.5q0 27 -56 27q-58 0 -107 -26l-30 87q55 34 165 34q72 0 115.5 -27.5t43.5 -74.5q0 -73 -81 -92z" />
    <glyph glyph-name="Japan1.9826" 
d="M446 468v282h-2l-87 -34l-20 86l131 50h100v-384h-122zM955 405v-50h-910v50h910zM669 -92h-340v71l65 44q75 51 106 80t31 51q0 44 -62 44q-44 0 -100 -39l-42 86q70 50 171 50q71 0 116.5 -32t45.5 -99q0 -68 -81 -121l-51 -34v-1h141v-100z" />
    <glyph glyph-name="Japan1.9827" 
d="M446 468v282h-2l-87 -34l-20 86l131 50h100v-384h-122zM955 405v-50h-910v50h910zM325 -62l29 90q64 -28 117 -28q64 0 64 27q0 13 -18 22.5t-42 9.5h-64v86h62q20 -1 37 6.5t17 21.5q0 27 -56 27q-58 0 -107 -26l-30 87q55 34 165 34q72 0 115.5 -27.5t43.5 -74.5
q0 -73 -81 -92v-2q40 -2 67.5 -24.5t27.5 -57.5q0 -56 -52.5 -84t-138.5 -28q-104 0 -156 33z" />
    <glyph glyph-name="Japan1.9828" 
d="M669 468h-340v71l65 44q75 51 106 80t31 51q0 44 -62 44q-44 0 -100 -39l-42 86q70 50 171 50q71 0 116.5 -32t45.5 -99q0 -68 -81 -121l-51 -34v-1h141v-100zM955 405v-50h-910v50h910zM325 -62l29 90q64 -28 117 -28q64 0 64 27q0 13 -18 22.5t-42 9.5h-64v86h62
q20 -1 37 6.5t17 21.5q0 27 -56 27q-58 0 -107 -26l-30 87q55 34 165 34q72 0 115.5 -27.5t43.5 -74.5q0 -73 -81 -92v-2q40 -2 67.5 -24.5t27.5 -57.5q0 -56 -52.5 -84t-138.5 -28q-104 0 -156 33z" />
    <glyph glyph-name="Japan1.9829" 
d="M634 -92h-125v87h-189v78l131 219h183v-208h45v-89h-45v-87zM435 84h74v53q0 25 2 95h-3q-7 -15 -36 -74l-37 -72v-2zM446 468v282h-2l-87 -34l-20 86l131 50h100v-384h-122zM955 405v-50h-910v50h910z" />
    <glyph glyph-name="Japan1.9830" 
d="M634 -92h-125v87h-189v78l131 219h183v-208h45v-89h-45v-87zM435 84h74v53q0 25 2 95h-3q-7 -15 -36 -74l-37 -72v-2zM325 498l29 90q64 -28 117 -28q64 0 64 27q0 13 -18 22.5t-42 9.5h-64v86h62q20 -1 37 6.5t17 21.5q0 27 -56 27q-58 0 -107 -26l-30 87q55 34 165 34
q72 0 115.5 -27.5t43.5 -74.5q0 -73 -81 -92v-2q40 -2 67.5 -24.5t27.5 -57.5q0 -56 -52.5 -84t-138.5 -28q-104 0 -156 33zM955 405v-50h-910v50h910z" />
    <glyph glyph-name="Japan1.9831" 
d="M446 468v282h-2l-87 -34l-20 86l131 50h100v-384h-122zM955 405v-50h-910v50h910zM646 288v-99h-186l-5 -22q11 1 28 1q191 0 191 -130q0 -61 -51.5 -97t-153.5 -36q-87 0 -144 23l25 92q54 -19 113 -19q77 0 77 36q0 43 -127 43q-31 0 -68 -5l28 213h273z" />
    <glyph glyph-name="Japan1.9832" 
d="M669 468h-340v71l65 44q75 51 106 80t31 51q0 44 -62 44q-44 0 -100 -39l-42 86q70 50 171 50q71 0 116.5 -32t45.5 -99q0 -68 -81 -121l-51 -34v-1h141v-100zM955 405v-50h-910v50h910zM646 288v-99h-186l-5 -22q11 1 28 1q191 0 191 -130q0 -61 -51.5 -97t-153.5 -36
q-87 0 -144 23l25 92q54 -19 113 -19q77 0 77 36q0 43 -127 43q-31 0 -68 -5l28 213h273z" />
    <glyph glyph-name="Japan1.9833" 
d="M325 498l29 90q64 -28 117 -28q64 0 64 27q0 13 -18 22.5t-42 9.5h-64v86h62q20 -1 37 6.5t17 21.5q0 27 -56 27q-58 0 -107 -26l-30 87q55 34 165 34q72 0 115.5 -27.5t43.5 -74.5q0 -73 -81 -92v-2q40 -2 67.5 -24.5t27.5 -57.5q0 -56 -52.5 -84t-138.5 -28
q-104 0 -156 33zM955 405v-50h-910v50h910zM646 288v-99h-186l-5 -22q11 1 28 1q191 0 191 -130q0 -61 -51.5 -97t-153.5 -36q-87 0 -144 23l25 92q54 -19 113 -19q77 0 77 36q0 43 -127 43q-31 0 -68 -5l28 213h273z" />
    <glyph glyph-name="Japan1.9834" 
d="M634 468h-125v87h-189v78l131 219h183v-208h45v-89h-45v-87zM435 644h74v53q0 25 2 95h-3q-7 -15 -36 -74l-37 -72v-2zM955 405v-50h-910v50h910zM646 288v-99h-186l-5 -22q11 1 28 1q191 0 191 -130q0 -61 -51.5 -97t-153.5 -36q-87 0 -144 23l25 92q54 -19 113 -19
q77 0 77 36q0 43 -127 43q-31 0 -68 -5l28 213h273z" />
    <glyph glyph-name="Japan1.9835" 
d="M631 294v-94q-18 2 -31 2q-129 0 -152 -48h1q29 17 89 17q58 0 101 -33t43 -95q0 -63 -52 -100.5t-122 -37.5q-52 0 -90.5 16t-59.5 43t-31 55t-10 58q0 101 70 158q39 34 88 47t127 13q21 0 29 -1zM505 -5q20 0 33 11.5t13 32.5t-15.5 34t-39.5 13q-22 0 -38 -12.5
t-16 -30.5q0 -16 17 -32t46 -16zM446 468v282h-2l-87 -34l-20 86l131 50h100v-384h-122zM955 405v-50h-910v50h910z" />
    <glyph glyph-name="Japan1.9836" 
d="M631 294v-94q-18 2 -31 2q-129 0 -152 -48h1q29 17 89 17q58 0 101 -33t43 -95q0 -63 -52 -100.5t-122 -37.5q-52 0 -90.5 16t-59.5 43t-31 55t-10 58q0 101 70 158q39 34 88 47t127 13q21 0 29 -1zM505 -5q20 0 33 11.5t13 32.5t-15.5 34t-39.5 13q-22 0 -38 -12.5
t-16 -30.5q0 -16 17 -32t46 -16zM646 848v-99h-186l-5 -22q11 1 28 1q191 0 191 -130q0 -61 -51.5 -97t-153.5 -36q-87 0 -144 23l25 92q54 -19 113 -19q77 0 77 36q0 43 -127 43q-31 0 -68 -5l28 213h273zM955 405v-50h-910v50h910z" />
    <glyph glyph-name="Japan1.9837" 
d="M446 468v282h-2l-87 -34l-20 86l131 50h100v-384h-122zM955 405v-50h-910v50h910zM329 285h341v-73l-179 -307h-144l183 279v2h-201v99z" />
    <glyph glyph-name="Japan1.9838" 
d="M669 468h-340v71l65 44q75 51 106 80t31 51q0 44 -62 44q-44 0 -100 -39l-42 86q70 50 171 50q71 0 116.5 -32t45.5 -99q0 -68 -81 -121l-51 -34v-1h141v-100zM955 405v-50h-910v50h910zM329 285h341v-73l-179 -307h-144l183 279v2h-201v99z" />
    <glyph glyph-name="Japan1.9839" 
d="M325 498l29 90q64 -28 117 -28q64 0 64 27q0 13 -18 22.5t-42 9.5h-64v86h62q20 -1 37 6.5t17 21.5q0 27 -56 27q-58 0 -107 -26l-30 87q55 34 165 34q72 0 115.5 -27.5t43.5 -74.5q0 -73 -81 -92v-2q40 -2 67.5 -24.5t27.5 -57.5q0 -56 -52.5 -84t-138.5 -28
q-104 0 -156 33zM955 405v-50h-910v50h910zM329 285h341v-73l-179 -307h-144l183 279v2h-201v99z" />
    <glyph glyph-name="Japan1.9840" 
d="M634 468h-125v87h-189v78l131 219h183v-208h45v-89h-45v-87zM435 644h74v53q0 25 2 95h-3q-7 -15 -36 -74l-37 -72v-2zM955 405v-50h-910v50h910zM329 285h341v-73l-179 -307h-144l183 279v2h-201v99z" />
    <glyph glyph-name="Japan1.9841" 
d="M646 848v-99h-186l-5 -22q11 1 28 1q191 0 191 -130q0 -61 -51.5 -97t-153.5 -36q-87 0 -144 23l25 92q54 -19 113 -19q77 0 77 36q0 43 -127 43q-31 0 -68 -5l28 213h273zM955 405v-50h-910v50h910zM329 285h341v-73l-179 -307h-144l183 279v2h-201v99z" />
    <glyph glyph-name="Japan1.9842" 
d="M631 854v-94q-18 2 -31 2q-129 0 -152 -48h1q29 17 89 17q58 0 101 -33t43 -95q0 -63 -52 -100.5t-122 -37.5q-52 0 -90.5 16t-59.5 43t-31 55t-10 58q0 101 70 158q39 34 88 47t127 13q21 0 29 -1zM505 555q20 0 33 11.5t13 32.5t-15.5 34t-39.5 13q-22 0 -38 -12.5
t-16 -30.5q0 -16 17 -32t46 -16zM955 405v-50h-910v50h910zM329 285h341v-73l-179 -307h-144l183 279v2h-201v99z" />
    <glyph glyph-name="Japan1.9843" 
d="M607 113v-1q27 -8 50 -29.5t23 -57.5q0 -52 -47.5 -86t-137.5 -34q-92 0 -133.5 35t-41.5 71q0 61 71 87v1q-56 27 -56 83q0 50 46.5 81.5t118.5 31.5q47 0 81 -11t50 -28.5t22.5 -32.5t6.5 -29q0 -54 -53 -81zM497 212q-39 0 -39 -27q0 -22 49 -35q11 2 21.5 10t10.5 18
q0 15 -11 24.5t-31 9.5zM501 -10q44 0 44 23q0 30 -50 43q-38 -3 -38 -34q0 -12 13.5 -22t30.5 -10zM446 468v282h-2l-87 -34l-20 86l131 50h100v-384h-122zM955 405v-50h-910v50h910z" />
    <glyph glyph-name="Japan1.9844" 
d="M607 113v-1q27 -8 50 -29.5t23 -57.5q0 -52 -47.5 -86t-137.5 -34q-92 0 -133.5 35t-41.5 71q0 61 71 87v1q-56 27 -56 83q0 50 46.5 81.5t118.5 31.5q47 0 81 -11t50 -28.5t22.5 -32.5t6.5 -29q0 -54 -53 -81zM497 212q-39 0 -39 -27q0 -22 49 -35q11 2 21.5 10t10.5 18
q0 15 -11 24.5t-31 9.5zM501 -10q44 0 44 23q0 30 -50 43q-38 -3 -38 -34q0 -12 13.5 -22t30.5 -10zM577 661v-2q40 -2 67.5 -24.5t27.5 -57.5q0 -56 -52.5 -84t-138.5 -28q-104 0 -156 33l29 90q64 -28 117 -28q64 0 64 27q0 13 -18 22.5t-42 9.5h-64v86h62q20 -1 37 6.5
t17 21.5q0 27 -56 27q-58 0 -107 -26l-30 87q55 34 165 34q72 0 115.5 -27.5t43.5 -74.5q0 -73 -81 -92zM955 405v-50h-910v50h910z" />
    <glyph glyph-name="Japan1.9845" 
d="M607 113v-1q27 -8 50 -29.5t23 -57.5q0 -52 -47.5 -86t-137.5 -34q-92 0 -133.5 35t-41.5 71q0 61 71 87v1q-56 27 -56 83q0 50 46.5 81.5t118.5 31.5q47 0 81 -11t50 -28.5t22.5 -32.5t6.5 -29q0 -54 -53 -81zM497 212q-39 0 -39 -27q0 -22 49 -35q11 2 21.5 10t10.5 18
q0 15 -11 24.5t-31 9.5zM501 -10q44 0 44 23q0 30 -50 43q-38 -3 -38 -34q0 -12 13.5 -22t30.5 -10zM646 848v-99h-186l-5 -22q11 1 28 1q191 0 191 -130q0 -61 -51.5 -97t-153.5 -36q-87 0 -144 23l25 92q54 -19 113 -19q77 0 77 36q0 43 -127 43q-31 0 -68 -5l28 213h273z
M955 405v-50h-910v50h910z" />
    <glyph glyph-name="Japan1.9846" 
d="M607 113v-1q27 -8 50 -29.5t23 -57.5q0 -52 -47.5 -86t-137.5 -34q-92 0 -133.5 35t-41.5 71q0 61 71 87v1q-56 27 -56 83q0 50 46.5 81.5t118.5 31.5q47 0 81 -11t50 -28.5t22.5 -32.5t6.5 -29q0 -54 -53 -81zM497 212q-39 0 -39 -27q0 -22 49 -35q11 2 21.5 10t10.5 18
q0 15 -11 24.5t-31 9.5zM501 -10q44 0 44 23q0 30 -50 43q-38 -3 -38 -34q0 -12 13.5 -22t30.5 -10zM329 848h341v-73l-179 -307h-144l183 279v2h-201v99zM955 405v-50h-910v50h910z" />
    <glyph glyph-name="Japan1.9847" 
d="M368 -94v94q18 -2 31 -2q129 0 152 48h-1q-29 -17 -89 -17q-58 0 -101 33t-43 95q0 63 52 100.5t122 37.5q52 0 90.5 -16t59.5 -43t31 -55t10 -58q0 -101 -70 -158q-39 -34 -88 -47t-127 -13q-21 0 -29 1zM494 205q-20 0 -33 -11.5t-13 -32.5t15.5 -34t39.5 -13
q22 0 38 12.5t16 30.5q0 16 -17 32t-46 16zM446 468v282h-2l-87 -34l-20 86l131 50h100v-384h-122zM955 405v-50h-910v50h910z" />
    <glyph glyph-name="Japan1.9848" 
d="M368 -94v94q18 -2 31 -2q129 0 152 48h-1q-29 -17 -89 -17q-58 0 -101 33t-43 95q0 63 52 100.5t122 37.5q52 0 90.5 -16t59.5 -43t31 -55t10 -58q0 -101 -70 -158q-39 -34 -88 -47t-127 -13q-21 0 -29 1zM494 205q-20 0 -33 -11.5t-13 -32.5t15.5 -34t39.5 -13
q22 0 38 12.5t16 30.5q0 16 -17 32t-46 16zM669 468h-340v71l65 44q75 51 106 80t31 51q0 44 -62 44q-44 0 -100 -39l-42 86q70 50 171 50q71 0 116.5 -32t45.5 -99q0 -68 -81 -121l-51 -34v-1h141v-100zM955 405v-50h-910v50h910z" />
    <glyph glyph-name="Japan1.9849" 
d="M634 468h-125v87h-189v78l131 219h183v-208h45v-89h-45v-87zM435 644h74v53q0 25 2 95h-3q-7 -15 -36 -74l-37 -72v-2zM368 -94v94q18 -2 31 -2q129 0 152 48h-1q-29 -17 -89 -17q-58 0 -101 33t-43 95q0 63 52 100.5t122 37.5q52 0 90.5 -16t59.5 -43t31 -55t10 -58
q0 -101 -70 -158q-39 -34 -88 -47t-127 -13q-21 0 -29 1zM494 205q-20 0 -33 -11.5t-13 -32.5t15.5 -34t39.5 -13q22 0 38 12.5t16 30.5q0 16 -17 32t-46 16zM955 405v-50h-910v50h910z" />
    <glyph glyph-name="Japan1.9850" 
d="M368 -94v94q18 -2 31 -2q129 0 152 48h-1q-29 -17 -89 -17q-58 0 -101 33t-43 95q0 63 52 100.5t122 37.5q52 0 90.5 -16t59.5 -43t31 -55t10 -58q0 -101 -70 -158q-39 -34 -88 -47t-127 -13q-21 0 -29 1zM494 205q-20 0 -33 -11.5t-13 -32.5t15.5 -34t39.5 -13
q22 0 38 12.5t16 30.5q0 16 -17 32t-46 16zM646 848v-99h-186l-5 -22q11 1 28 1q191 0 191 -130q0 -61 -51.5 -97t-153.5 -36q-87 0 -144 23l25 92q54 -19 113 -19q77 0 77 36q0 43 -127 43q-31 0 -68 -5l28 213h273zM955 405v-50h-910v50h910z" />
    <glyph glyph-name="Japan1.9851" 
d="M368 -94v94q18 -2 31 -2q129 0 152 48h-1q-29 -17 -89 -17q-58 0 -101 33t-43 95q0 63 52 100.5t122 37.5q52 0 90.5 -16t59.5 -43t31 -55t10 -58q0 -101 -70 -158q-39 -34 -88 -47t-127 -13q-21 0 -29 1zM494 205q-20 0 -33 -11.5t-13 -32.5t15.5 -34t39.5 -13
q22 0 38 12.5t16 30.5q0 16 -17 32t-46 16zM329 848h341v-73l-179 -307h-144l183 279v2h-201v99zM955 405v-50h-910v50h910z" />
    <glyph glyph-name="Japan1.9852" 
d="M607 673v-1q27 -8 50 -29.5t23 -57.5q0 -52 -47.5 -86t-137.5 -34q-92 0 -133.5 35t-41.5 71q0 61 71 87v1q-56 27 -56 83q0 50 46.5 81.5t118.5 31.5q47 0 81 -11t50 -28.5t22.5 -32.5t6.5 -29q0 -54 -53 -81zM497 772q-39 0 -39 -27q0 -22 49 -35q11 2 21.5 10t10.5 18
q0 15 -11 24.5t-31 9.5zM501 550q44 0 44 23q0 30 -50 43q-38 -3 -38 -34q0 -12 13.5 -22t30.5 -10zM551 46h-1q-29 -17 -89 -17q-58 0 -101 33t-43 95q0 63 52 100.5t122 37.5q52 0 90.5 -16t59.5 -43t31 -55t10 -58q0 -101 -70 -158q-39 -34 -88 -47t-127 -13q-21 0 -29 1
v94q18 -2 31 -2q129 0 152 48zM494 205q-20 0 -33 -11.5t-13 -32.5t15.5 -34t39.5 -13q22 0 38 12.5t16 30.5q0 16 -17 32t-46 16zM955 405v-50h-910v50h910z" />
    <glyph glyph-name="Japan1.9853" 
d="M610 -95q-91 0 -135 55t-44 141q0 83 43 138.5t135 55.5q90 0 135.5 -55t45.5 -141q0 -80 -43 -137t-137 -57zM610 -9q25 0 38.5 29.5t13.5 80.5q0 54 -14.5 81t-37.5 27q-51 0 -51 -108q0 -110 51 -110zM446 468v282h-2l-87 -34l-20 86l131 50h100v-384h-122zM955 405
v-50h-910v50h910zM274 -92v282h-2l-87 -34l-20 86l131 50h100v-384h-122z" />
    <glyph glyph-name="Japan1.9854" 
d="M610 -95q-91 0 -135 55t-44 141q0 83 43 138.5t135 55.5q90 0 135.5 -55t45.5 -141q0 -80 -43 -137t-137 -57zM610 -9q25 0 38.5 29.5t13.5 80.5q0 54 -14.5 81t-37.5 27q-51 0 -51 -108q0 -110 51 -110zM577 661v-2q40 -2 67.5 -24.5t27.5 -57.5q0 -56 -52.5 -84
t-138.5 -28q-104 0 -156 33l29 90q64 -28 117 -28q64 0 64 27q0 13 -18 22.5t-42 9.5h-64v86h62q20 -1 37 6.5t17 21.5q0 27 -56 27q-58 0 -107 -26l-30 87q55 34 165 34q72 0 115.5 -27.5t43.5 -74.5q0 -73 -81 -92zM955 405v-50h-910v50h910zM274 -92v282h-2l-87 -34
l-20 86l131 50h100v-384h-122z" />
    <glyph glyph-name="Japan1.9855" 
d="M610 -95q-91 0 -135 55t-44 141q0 83 43 138.5t135 55.5q90 0 135.5 -55t45.5 -141q0 -80 -43 -137t-137 -57zM610 -9q25 0 38.5 29.5t13.5 80.5q0 54 -14.5 81t-37.5 27q-51 0 -51 -108q0 -110 51 -110zM329 848h341v-73l-179 -307h-144l183 279v2h-201v99zM955 405v-50
h-910v50h910zM274 -92v282h-2l-87 -34l-20 86l131 50h100v-384h-122z" />
    <glyph glyph-name="Japan1.9856" 
d="M551 606h-1q-29 -17 -89 -17q-58 0 -101 33t-43 95q0 63 52 100.5t122 37.5q52 0 90.5 -16t59.5 -43t31 -55t10 -58q0 -101 -70 -158q-39 -34 -88 -47t-127 -13q-21 0 -29 1v94q18 -2 31 -2q129 0 152 48zM494 765q-20 0 -33 -11.5t-13 -32.5t15.5 -34t39.5 -13
q22 0 38 12.5t16 30.5q0 16 -17 32t-46 16zM610 -95q-91 0 -135 55t-44 141q0 83 43 138.5t135 55.5q90 0 135.5 -55t45.5 -141q0 -80 -43 -137t-137 -57zM610 -9q25 0 38.5 29.5t13.5 80.5q0 54 -14.5 81t-37.5 27q-51 0 -51 -108q0 -110 51 -110zM955 405v-50h-910v50h910
zM274 -92v282h-2l-87 -34l-20 86l131 50h100v-384h-122z" />
    <glyph glyph-name="Japan1.9857" 
d="M446 468v282h-2l-87 -34l-20 86l131 50h100v-384h-122zM955 405v-50h-910v50h910zM284 -92v282h-2l-87 -34l-20 86l131 50h100v-384h-122zM641 -92v282h-2l-87 -34l-20 86l131 50h100v-384h-122z" />
    <glyph glyph-name="Japan1.9858" 
d="M669 468h-340v71l65 44q75 51 106 80t31 51q0 44 -62 44q-44 0 -100 -39l-42 86q70 50 171 50q71 0 116.5 -32t45.5 -99q0 -68 -81 -121l-51 -34v-1h141v-100zM955 405v-50h-910v50h910zM284 -92v282h-2l-87 -34l-20 86l131 50h100v-384h-122zM641 -92v282h-2l-87 -34
l-20 86l131 50h100v-384h-122z" />
    <glyph glyph-name="Japan1.9859" 
d="M325 498l29 90q64 -28 117 -28q64 0 64 27q0 13 -18 22.5t-42 9.5h-64v86h62q20 -1 37 6.5t17 21.5q0 27 -56 27q-58 0 -107 -26l-30 87q55 34 165 34q72 0 115.5 -27.5t43.5 -74.5q0 -73 -81 -92v-2q40 -2 67.5 -24.5t27.5 -57.5q0 -56 -52.5 -84t-138.5 -28
q-104 0 -156 33zM955 405v-50h-910v50h910zM284 -92v282h-2l-87 -34l-20 86l131 50h100v-384h-122zM641 -92v282h-2l-87 -34l-20 86l131 50h100v-384h-122z" />
    <glyph glyph-name="Japan1.9860" 
d="M634 468h-125v87h-189v78l131 219h183v-208h45v-89h-45v-87zM435 644h74v53q0 25 2 95h-3q-7 -15 -36 -74l-37 -72v-2zM955 405v-50h-910v50h910zM284 -92v282h-2l-87 -34l-20 86l131 50h100v-384h-122zM641 -92v282h-2l-87 -34l-20 86l131 50h100v-384h-122z" />
    <glyph glyph-name="Japan1.9861" 
d="M646 848v-99h-186l-5 -22q11 1 28 1q191 0 191 -130q0 -61 -51.5 -97t-153.5 -36q-87 0 -144 23l25 92q54 -19 113 -19q77 0 77 36q0 43 -127 43q-31 0 -68 -5l28 213h273zM955 405v-50h-910v50h910zM284 -92v282h-2l-87 -34l-20 86l131 50h100v-384h-122zM641 -92v282
h-2l-87 -34l-20 86l131 50h100v-384h-122z" />
    <glyph glyph-name="Japan1.9862" 
d="M631 854v-94q-18 2 -31 2q-129 0 -152 -48h1q29 17 89 17q58 0 101 -33t43 -95q0 -63 -52 -100.5t-122 -37.5q-52 0 -90.5 16t-59.5 43t-31 55t-10 58q0 101 70 158q39 34 88 47t127 13q21 0 29 -1zM505 555q20 0 33 11.5t13 32.5t-15.5 34t-39.5 13q-22 0 -38 -12.5
t-16 -30.5q0 -16 17 -32t46 -16zM955 405v-50h-910v50h910zM284 -92v282h-2l-87 -34l-20 86l131 50h100v-384h-122zM641 -92v282h-2l-87 -34l-20 86l131 50h100v-384h-122z" />
    <glyph glyph-name="Japan1.9863" 
d="M329 848h341v-73l-179 -307h-144l183 279v2h-201v99zM955 405v-50h-910v50h910zM284 -92v282h-2l-87 -34l-20 86l131 50h100v-384h-122zM641 -92v282h-2l-87 -34l-20 86l131 50h100v-384h-122z" />
    <glyph glyph-name="Japan1.9864" 
d="M607 673v-1q27 -8 50 -29.5t23 -57.5q0 -52 -47.5 -86t-137.5 -34q-92 0 -133.5 35t-41.5 71q0 61 71 87v1q-56 27 -56 83q0 50 46.5 81.5t118.5 31.5q47 0 81 -11t50 -28.5t22.5 -32.5t6.5 -29q0 -54 -53 -81zM497 772q-39 0 -39 -27q0 -22 49 -35q11 2 21.5 10t10.5 18
q0 15 -11 24.5t-31 9.5zM501 550q44 0 44 23q0 30 -50 43q-38 -3 -38 -34q0 -12 13.5 -22t30.5 -10zM955 405v-50h-910v50h910zM284 -92v282h-2l-87 -34l-20 86l131 50h100v-384h-122zM641 -92v282h-2l-87 -34l-20 86l131 50h100v-384h-122z" />
    <glyph glyph-name="Japan1.9865" 
d="M368 466v94q18 -2 31 -2q129 0 152 48h-1q-29 -17 -89 -17q-58 0 -101 33t-43 95q0 63 52 100.5t122 37.5q52 0 90.5 -16t59.5 -43t31 -55t10 -58q0 -101 -70 -158q-39 -34 -88 -47t-127 -13q-21 0 -29 1zM494 765q-20 0 -33 -11.5t-13 -32.5t15.5 -34t39.5 -13
q22 0 38 12.5t16 30.5q0 16 -17 32t-46 16zM955 405v-50h-910v50h910zM284 -92v282h-2l-87 -34l-20 86l131 50h100v-384h-122zM641 -92v282h-2l-87 -34l-20 86l131 50h100v-384h-122z" />
    <glyph glyph-name="Japan1.9866" 
d="M610 465q-91 0 -135 55t-44 141q0 83 43 138.5t135 55.5q90 0 135.5 -55t45.5 -141q0 -80 -43 -137t-137 -57zM610 551q25 0 38.5 29.5t13.5 80.5q0 54 -14.5 81t-37.5 27q-51 0 -51 -108q0 -110 51 -110zM274 468v282h-2l-87 -34l-20 86l131 50h100v-384h-122zM955 405
v-50h-910v50h910zM284 -92v282h-2l-87 -34l-20 86l131 50h100v-384h-122zM641 -92v282h-2l-87 -34l-20 86l131 50h100v-384h-122z" />
    <glyph glyph-name="Japan1.9867" 
d="M955 405v-50h-910v50h910zM807 -92h-340v71l65 44q75 51 106 80t31 51q0 44 -62 44q-44 0 -100 -39l-42 86q70 50 171 50q71 0 116.5 -32t45.5 -99q0 -68 -81 -121l-51 -34v-1h141v-100zM446 468v282h-2l-87 -34l-20 86l131 50h100v-384h-122zM304 -92v282h-2l-87 -34
l-20 86l131 50h100v-384h-122z" />
    <glyph glyph-name="Japan1.9868" 
d="M955 405v-50h-910v50h910zM807 -92h-340v71l65 44q75 51 106 80t31 51q0 44 -62 44q-44 0 -100 -39l-42 86q70 50 171 50q71 0 116.5 -32t45.5 -99q0 -68 -81 -121l-51 -34v-1h141v-100zM646 848v-99h-186l-5 -22q11 1 28 1q191 0 191 -130q0 -61 -51.5 -97t-153.5 -36
q-87 0 -144 23l25 92q54 -19 113 -19q77 0 77 36q0 43 -127 43q-31 0 -68 -5l28 213h273zM304 -92v282h-2l-87 -34l-20 86l131 50h100v-384h-122z" />
    <glyph glyph-name="Japan1.9869" 
d="M955 405v-50h-910v50h910zM807 -92h-340v71l65 44q75 51 106 80t31 51q0 44 -62 44q-44 0 -100 -39l-42 86q70 50 171 50q71 0 116.5 -32t45.5 -99q0 -68 -81 -121l-51 -34v-1h141v-100zM329 848h341v-73l-179 -307h-144l183 279v2h-201v99zM304 -92v282h-2l-87 -34
l-20 86l131 50h100v-384h-122z" />
    <glyph glyph-name="Japan1.9870" 
d="M955 405v-50h-910v50h910zM807 -92h-340v71l65 44q75 51 106 80t31 51q0 44 -62 44q-44 0 -100 -39l-42 86q70 50 171 50q71 0 116.5 -32t45.5 -99q0 -68 -81 -121l-51 -34v-1h141v-100zM284 468v282h-2l-87 -34l-20 86l131 50h100v-384h-122zM641 468v282h-2l-87 -34
l-20 86l131 50h100v-384h-122zM304 -92v282h-2l-87 -34l-20 86l131 50h100v-384h-122z" />
    <glyph glyph-name="Japan1.9871" 
d="M454 -95q-73 0 -104.5 49t-31.5 147q0 90 30 142t105 52q137 0 137 -196q0 -194 -136 -194zM453 -9q7 0 11 6t7 31t3 73q0 108 -21 108q-11 0 -14.5 -24.5t-3.5 -83.5q0 -110 18 -110zM752 -95q-73 0 -104.5 49t-31.5 147q0 90 30 142t105 52q137 0 137 -196
q0 -194 -136 -194zM751 -9q7 0 11 6t7 31t3 73q0 108 -21 108q-11 0 -14.5 -24.5t-3.5 -83.5q0 -110 18 -110zM446 468v282h-2l-87 -34l-20 86l131 50h100v-384h-122zM955 405v-50h-910v50h910zM176 -92v282h-2l-58 -23l-20 86l102 39h90v-384h-112z" />
    <glyph glyph-name="Japan1.9872" 
d="M501 -10q-52 0 -92 24t-65 62t-41 90t-22 103.5t-6 107.5q0 111 23 197.5t76 142t131 55.5q53 0 93 -24t63.5 -62t38.5 -91t20 -103t5 -107q0 -195 -62.5 -295t-161.5 -100zM504 132q32 0 45.5 59t13.5 190q0 126 -13.5 187.5t-45.5 61.5q-16 0 -28 -12.5t-19 -37.5
t-11.5 -48t-6 -60.5t-2 -58t-0.5 -54.5q0 -127 17 -177t50 -50z" />
    <glyph glyph-name="Japan1.9873" 
d="M486 0v606h-2l-130 -67l-45 121l195 102h142v-762h-160z" />
    <glyph glyph-name="Japan1.9874" 
d="M710 0h-421v111l74 101q99 135 140 206t41 125q0 39 -21.5 63.5t-58.5 24.5q-52 0 -105 -63l-68 110q76 94 200 94q103 0 158 -58.5t55 -139.5q0 -42 -10.5 -83t-21 -68t-42.5 -75t-46 -67t-61 -80l-40 -53v-2h227v-146z" />
    <glyph glyph-name="Japan1.9875" 
d="M350 600l-39 113q82 59 173 59q100 0 155 -55.5t55 -136.5q0 -127 -111 -175v-2q59 -17 95.5 -66.5t36.5 -120.5q0 -95 -62.5 -160.5t-176.5 -65.5q-119 0 -191 65l50 122q62 -46 121 -46q46 0 71.5 26.5t25.5 70.5q0 29 -12.5 50t-28.5 31t-43 15.5t-43 6t-42 0.5v124
q150 0 150 96q0 38 -20 62.5t-57 24.5q-56 0 -107 -38z" />
    <glyph glyph-name="Japan1.9876" 
d="M664 0h-143v159h-258v106l235 497h166v-470h73v-133h-73v-159zM398 292h123v163q0 31 7 122h-3q-43 -98 -51 -115l-76 -168v-2z" />
    <glyph glyph-name="Japan1.9877" 
d="M690 762v-146h-200l-16 -122q8 1 23 1q28 0 60 -10.5t67.5 -34t58.5 -73t23 -116.5q0 -115 -72.5 -193t-195.5 -78q-90 0 -145 31l24 131q52 -26 109 -26q56 0 88 32t32 88q0 69 -45 99.5t-117 30.5q-39 0 -55 -3l41 389h320z" />
    <glyph glyph-name="Japan1.9878" 
d="M657 772l9 -135q-25 -1 -42 -3t-47.5 -13t-51.5 -28.5t-42.5 -53t-32.5 -84.5h3q43 45 101 45q76 0 123.5 -65.5t47.5 -172.5q0 -70 -22.5 -130t-73.5 -101t-122 -41q-107 0 -169.5 85.5t-62.5 230.5q0 86 19 159t50 123.5t72.5 88t83 58t84.5 29.5q25 5 73 8zM506 110
q58 0 58 153q-1 49 -16 83.5t-47 34.5q-36 0 -55 -46q-7 -16 -7 -70q0 -66 17 -110.5t50 -44.5z" />
    <glyph glyph-name="Japan1.9879" 
d="M290 762h419v-109l-205 -653h-157l201 616h-258v146z" />
    <glyph glyph-name="Japan1.9880" 
d="M376 404v2q-46 29 -67 73.5t-21 88.5q0 92 64 148t158 56q89 0 147 -53t58 -137q0 -113 -95 -170v-3q52 -27 82.5 -77t30.5 -116q0 -105 -67.5 -165.5t-168.5 -60.5q-102 0 -166 57t-64 153q0 136 109 204zM508 661q-35 0 -51 -27t-16 -62q0 -71 77 -108q23 11 37.5 40.5
t14.5 61.5q0 40 -15.5 67.5t-46.5 27.5zM504 102q36 0 54.5 30.5t18.5 76.5q0 48 -26 82.5t-62 50.5q-64 -39 -64 -124q0 -46 19 -81t60 -35z" />
    <glyph glyph-name="Japan1.9881" 
d="M343 -10l-9 135q25 1 42 3t47.5 13t51.5 28.5t42.5 53t32.5 84.5h-3q-43 -45 -101 -45q-76 0 -123.5 65.5t-47.5 172.5q0 70 22.5 130t73.5 101t122 41q107 0 169.5 -85.5t62.5 -230.5q0 -86 -19 -159t-50 -123.5t-72.5 -88t-83 -58t-84.5 -29.5q-25 -5 -73 -8zM494 652
q-58 0 -58 -153q1 -49 16 -83.5t47 -34.5q36 0 55 46q7 16 7 70q0 66 -17 110.5t-50 44.5z" />
    <glyph glyph-name="Japan1.9882" 
d="M681 772l44 -24l-48 -90q48 -100 48 -273q0 -195 -62.5 -295t-161.5 -100q-88 0 -145 70l-37 -70l-44 24l51 94q-51 102 -51 269q0 111 23 197.5t76 142t131 55.5q87 0 141 -65zM437 317l118 220q-12 93 -51 93q-67 0 -67 -250v-63zM562 444l-117 -219q13 -93 58 -93
q32 0 46 55.5t14 193.5q0 43 -1 63z" />
    <glyph glyph-name="Japan1.9883" 
d="M95 776h167v-776h-167v776zM309 776h167v-776h-167v776zM523 776h167v-776h-167v776zM738 776h167v-776h-167v776z" />
    <glyph glyph-name="Japan1.9884" 
d="M325 48h-2q-74 0 -114 83t-40 249t40 249t115 83t115 -83t40 -249t-40 -249t-114 -83zM323 180q7 0 11 6.5t8 53.5t4 140q0 200 -22 200t-22 -200t21 -200zM677 48h-2q-74 0 -114 83t-40 249t40 249t115 83t115 -83t40 -249t-40 -249t-114 -83zM675 180q7 0 11 6.5
t8 53.5t4 140q0 200 -22 200t-22 -200t21 -200zM227 855v-5q-112 -150 -112 -470q0 -321 112 -470v-5h-90q-112 146 -112 475t112 475h90zM773 -95v5q112 150 112 470q0 321 -112 470v5h90q112 -146 112 -475t-112 -475h-90z" />
    <glyph glyph-name="Japan1.9885" 
d="M325 48h-2q-74 0 -114 83t-40 249t40 249t115 83t115 -83t40 -249t-40 -249t-114 -83zM323 180q7 0 11 6.5t8 53.5t4 140q0 200 -22 200t-22 -200t21 -200zM227 855v-5q-112 -150 -112 -470q0 -321 112 -470v-5h-90q-112 146 -112 475t112 475h90zM773 -95v5
q112 150 112 470q0 321 -112 470v5h90q112 -146 112 -475t-112 -475h-90zM639 51v529h-2l-66 -33l-11 114l88 48h125v-658h-134z" />
    <glyph glyph-name="Japan1.9886" 
d="M325 48h-2q-74 0 -114 83t-40 249t40 249t115 83t115 -83t40 -249t-40 -249t-114 -83zM323 180q7 0 11 6.5t8 53.5t4 140q0 200 -22 200t-22 -200t21 -200zM227 855v-5q-112 -150 -112 -470q0 -321 112 -470v-5h-90q-112 146 -112 475t112 475h90zM773 -95v5
q112 150 112 470q0 321 -112 470v5h90q112 -146 112 -475t-112 -475h-90zM809 55h-287v104l48 93q34 66 49.5 99.5t29 80.5t13.5 89q0 31 -16.5 51.5t-42.5 20.5q-28 0 -53 -25l-24 117q41 27 106 27q83 0 128.5 -49t45.5 -132q0 -21 -1.5 -40t-7 -40t-8.5 -34.5t-14 -36.5
t-14 -31t-18 -34t-17.5 -30.5t-21 -34t-19.5 -31.5l-21 -33v-2h145v-129z" />
    </font>
</defs>
</svg>
