<?xml version="1.0" standalone="no"?>
<!DOCTYPE svg PUBLIC "-//W3C//DTD SVG 1.1//EN" "http://www.w3.org/Graphics/SVG/1.1/DTD/svg11.dtd" >
<svg>
<metadata>
Created by FontForge 20110222 at Mon Sep  8 14:21:59 2014
 By deploy user
</metadata>
<defs>
<font id="KozGoPro-Regular-AlphaNum" horiz-adv-x="1000" vert-adv-y="1000" >
  <font-face 
    font-family="KozGoPro-Regular-AlphaNum"
    font-weight="400"
    font-stretch="normal"
    units-per-em="1000"
    panose-1="2 0 5 3 0 0 0 0 0 0"
    ascent="800"
    descent="-200"
    bbox="14 -86 972 846"
    underline-thickness="50"
    underline-position="-100"
  />
<missing-glyph horiz-adv-x="364" 
d="M33 0v666h265v-666h-265zM66 33h199v600h-199v-600z" />
    <glyph glyph-name=".notdef" horiz-adv-x="364" 
d="M33 0v666h265v-666h-265zM66 33h199v600h-199v-600z" />
    <glyph glyph-name=".null" horiz-adv-x="0" vert-adv-y="0" 
 />
    <glyph glyph-name="nonmarkingreturn" horiz-adv-x="333" 
 />
    <glyph glyph-name="Japan1.7555" 
d="M965 380q0 -95 -37 -181.5t-99.5 -148.5t-148.5 -98.5t-180 -36.5q-95 0 -181 37t-148 99t-99 148t-37 181t37 181t99 148t148 99t181 37t181 -37t148 -99t99 -148t37 -181zM500 814q-181 0 -307.5 -127.5t-126.5 -306.5q0 -180 127 -307t307 -127t307 127t127 307
t-127 307t-307 127zM478 123v454h-1l-86 -46l-13 52l104 54h62v-514h-66z" />
    <glyph glyph-name="Japan1.7556" 
d="M965 380q0 -95 -37 -181.5t-99.5 -148.5t-148.5 -98.5t-180 -36.5q-95 0 -181 37t-148 99t-99 148t-37 181t37 181t99 148t148 99t181 37t181 -37t148 -99t99 -148t37 -181zM500 814q-181 0 -307.5 -127.5t-126.5 -306.5q0 -180 127 -307t307 -127t307 127t127 307
t-127 307t-307 127zM675 128h-350v42l56 50q129 114 170.5 163.5t42.5 97.5q0 42 -27 72.5t-87 30.5q-62 0 -121 -47l-21 47q67 56 156 56q85 0 126 -46t41 -101q0 -36 -11 -66.5t-42 -66.5t-61 -64t-92 -81l-36 -29v-2h256v-56z" />
    <glyph glyph-name="Japan1.7557" 
d="M965 380q0 -95 -37 -181.5t-99.5 -148.5t-148.5 -98.5t-180 -36.5q-95 0 -181 37t-148 99t-99 148t-37 181t37 181t99 148t148 99t181 37t181 -37t148 -99t99 -148t37 -181zM500 814q-181 0 -307.5 -127.5t-126.5 -306.5q0 -180 127 -307t307 -127t307 127t127 307
t-127 307t-307 127zM329 158l18 52q55 -35 125 -35t99 31.5t29 64.5q0 55 -45 78.5t-105 23.5h-42v52h44q51 0 89 21t38 62q0 31 -23.5 53.5t-75.5 22.5q-64 0 -113 -35l-18 49q58 42 143 42q79 0 117.5 -36t38.5 -85q0 -40 -25.5 -70.5t-73.5 -46.5v-2q54 -11 87.5 -46
t33.5 -83q0 -61 -51.5 -106t-147.5 -45q-88 0 -142 38z" />
    <glyph glyph-name="Japan1.7558" 
d="M965 380q0 -95 -37 -181.5t-99.5 -148.5t-148.5 -98.5t-180 -36.5q-95 0 -181 37t-148 99t-99 148t-37 181t37 181t99 148t148 99t181 37t181 -37t148 -99t99 -148t37 -181zM500 814q-181 0 -307.5 -127.5t-126.5 -306.5q0 -180 127 -307t307 -127t307 127t127 307
t-127 307t-307 127zM606 123h-65v135h-266v45l264 334h67v-326h77v-53h-77v-135zM338 311h203v197q0 27 2 63l-2 1q-18 -32 -37 -60l-166 -199v-2z" />
    <glyph glyph-name="Japan1.7559" 
d="M965 380q0 -95 -37 -181.5t-99.5 -148.5t-148.5 -98.5t-180 -36.5q-95 0 -181 37t-148 99t-99 148t-37 181t37 181t99 148t148 99t181 37t181 -37t148 -99t99 -148t37 -181zM500 814q-181 0 -307.5 -127.5t-126.5 -306.5q0 -180 127 -307t307 -127t307 127t127 307
t-127 307t-307 127zM657 632v-56h-209l-19 -130q23 5 50 5q80 0 135.5 -42t55.5 -117q0 -74 -56 -123t-141 -49q-84 0 -138 34l17 52q53 -31 121 -31q54 0 91 31.5t37 75.5q0 116 -153 116q-32 0 -81 -7l30 241h260z" />
    <glyph glyph-name="Japan1.7560" 
d="M965 380q0 -95 -37 -181.5t-99.5 -148.5t-148.5 -98.5t-180 -36.5q-95 0 -181 37t-148 99t-99 148t-37 181t37 181t99 148t148 99t181 37t181 -37t148 -99t99 -148t37 -181zM500 814q-181 0 -307.5 -127.5t-126.5 -306.5q0 -180 127 -307t307 -127t307 127t127 307
t-127 307t-307 127zM631 640v-57q-6 1 -18 1q-23 0 -47 -4q-150 -15 -183 -180l3 1q49 59 137 59q74 0 118 -46.5t44 -110.5q0 -73 -53 -128t-137 -55q-80 0 -130.5 55.5t-50.5 161.5q0 124 67 205.5t174 92.5q50 6 76 5zM503 169q53 0 84.5 40.5t31.5 91.5q-1 45 -32 78
t-81 33q-48 0 -87.5 -26.5t-39.5 -64.5q0 -23 5.5 -46.5t17.5 -49t38.5 -41t62.5 -15.5z" />
    <glyph glyph-name="Japan1.7561" 
d="M965 380q0 -95 -37 -181.5t-99.5 -148.5t-148.5 -98.5t-180 -36.5q-95 0 -181 37t-148 99t-99 148t-37 181t37 181t99 148t148 99t181 37t181 -37t148 -99t99 -148t37 -181zM500 814q-181 0 -307.5 -127.5t-126.5 -306.5q0 -180 127 -307t307 -127t307 127t127 307
t-127 307t-307 127zM332 632h342v-49l-246 -460h-70l247 451v2h-273v56z" />
    <glyph glyph-name="Japan1.7562" 
d="M421 391v3q-88 33 -88 110q0 59 49 97.5t123 38.5t118 -35t44 -90q0 -80 -92 -116v-3q111 -33 111 -126q0 -70 -54.5 -110t-132.5 -40q-79 0 -132.5 37.5t-53.5 102.5q0 91 108 131zM504 593q-51 0 -79 -25t-28 -62q0 -70 116 -92q41 10 66.5 34t25.5 61q0 32 -24.5 58
t-76.5 26zM379 269v-5q0 -39 33 -68t88 -29q57 0 89 28.5t32 65.5q0 48 -34 74t-102 38q-51 -11 -78.5 -38t-27.5 -66zM965 380q0 -95 -37 -181.5t-99.5 -148.5t-148.5 -98.5t-180 -36.5q-95 0 -181 37t-148 99t-99 148t-37 181t37 181t99 148t148 99t181 37t181 -37
t148 -99t99 -148t37 -181zM500 814q-181 0 -307.5 -127.5t-126.5 -306.5q0 -180 127 -307t307 -127t307 127t127 307t-127 307t-307 127z" />
    <glyph glyph-name="Japan1.7563" 
d="M965 380q0 -95 -37 -181.5t-99.5 -148.5t-148.5 -98.5t-180 -36.5q-95 0 -181 37t-148 99t-99 148t-37 181t37 181t99 148t148 99t181 37t181 -37t148 -99t99 -148t37 -181zM500 814q-181 0 -307.5 -127.5t-126.5 -306.5q0 -180 127 -307t307 -127t307 127t127 307
t-127 307t-307 127zM368 120v57q6 -1 18 -1q22 0 46 4q64 6 116 48t68 132l-3 -1q-49 -59 -137 -59q-74 0 -118 46.5t-44 110.5q0 73 53 128t137 55q80 0 130.5 -55.5t50.5 -161.5q0 -122 -66.5 -204.5t-173.5 -93.5q-51 -6 -77 -5zM496 591q-54 0 -85 -40t-31 -92
q0 -44 31 -77.5t81 -33.5q44 0 85.5 25t41.5 66q0 23 -5.5 47t-18 49t-38 40.5t-61.5 15.5z" />
    <glyph glyph-name="Japan1.7564" 
d="M965 379q0 -95 -37 -181.5t-99.5 -148.5t-148.5 -98.5t-180 -36.5q-95 0 -181 37t-148 99t-99 148t-37 181t37 181t99 148t148 99t181 37t181 -37t148 -99t99 -148t37 -181zM500 813q-181 0 -307.5 -127.5t-126.5 -306.5q0 -180 127 -307t307 -127t307 127t127 307
t-127 307t-307 127zM624 136q-65 0 -104 65t-40 176q0 115 42 180t110 65q69 0 105.5 -64.5t36.5 -172.5q0 -123 -41 -186t-109 -63zM539 386v-15q0 -88 23.5 -137t63.5 -49q89 0 89 196q0 192 -87 192q-40 0 -64.5 -50t-24.5 -137zM305 138v425h-1l-78 -42l-12 46l96 53h53
v-482h-58z" />
    <glyph glyph-name="Japan1.7565" 
d="M965 380q0 -95 -37 -181.5t-99.5 -148.5t-148.5 -98.5t-180 -36.5q-95 0 -181 37t-148 99t-99 148t-37 181t37 181t99 148t148 99t181 37t181 -37t148 -99t99 -148t37 -181zM500 814q-181 0 -307.5 -127.5t-126.5 -306.5q0 -180 127 -307t307 -127t307 127t127 307
t-127 307t-307 127zM312 139v425h-2l-76 -42l-12 46l95 53h54v-482h-59zM653 139v425h-1l-78 -42l-11 46l95 53h54v-482h-59z" />
    <glyph glyph-name="Japan1.7566" 
d="M965 380q0 -95 -37 -181.5t-99.5 -148.5t-148.5 -98.5t-180 -36.5q-95 0 -181 37t-148 99t-99 148t-37 181t37 181t99 148t148 99t181 37t181 -37t148 -99t99 -148t37 -181zM500 814q-181 0 -307.5 -127.5t-126.5 -306.5q0 -180 127 -307t307 -127t307 127t127 307
t-127 307t-307 127zM305 139v425h-1l-78 -42l-12 46l96 53h54v-482h-59zM759 144h-276v39l46 50q67 74 92.5 104t47 70t21.5 75q0 39 -21 64.5t-67 25.5q-48 0 -90 -35l-15 45q50 41 116 41q70 0 103 -40.5t33 -92.5q0 -63 -37.5 -118.5t-124.5 -142.5l-31 -32v-2h203v-51z
" />
    <glyph glyph-name="Japan1.7567" 
d="M965 380q0 -95 -37 -181.5t-99.5 -148.5t-148.5 -98.5t-180 -36.5q-95 0 -181 37t-148 99t-99 148t-37 181t37 181t99 148t148 99t181 37t181 -37t148 -99t99 -148t37 -181zM500 814q-181 0 -307.5 -127.5t-126.5 -306.5q0 -180 127 -307t307 -127t307 127t127 307
t-127 307t-307 127zM305 139v425h-1l-78 -42l-12 46l96 53h54v-482h-59zM484 165l13 48q42 -25 96 -25q55 0 80.5 27.5t25.5 60.5q0 28 -11.5 47.5t-25.5 29t-38.5 14.5t-38.5 5.5t-38 0.5v47h25q43 0 76.5 21t33.5 61q0 32 -20 51.5t-61 19.5q-43 0 -84 -27l-14 44
q45 33 110 33q64 0 96.5 -33t32.5 -79q0 -37 -22 -66.5t-62 -42.5v-1q45 -11 73 -43.5t28 -79.5q0 -57 -43 -99t-123 -42q-64 0 -109 28z" />
    <glyph glyph-name="Japan1.7568" 
d="M965 380q0 -95 -37 -181.5t-99.5 -148.5t-148.5 -98.5t-180 -36.5q-95 0 -181 37t-148 99t-99 148t-37 181t37 181t99 148t148 99t181 37t181 -37t148 -99t99 -148t37 -181zM500 814q-181 0 -307.5 -127.5t-126.5 -306.5q0 -180 127 -307t307 -127t307 127t127 307
t-127 307t-307 127zM714 139h-54v127h-205v40l206 314h53v-306h63v-48h-63v-127zM506 314h154v170q0 34 3 67h-2q-17 -33 -34 -61l-121 -174v-2zM305 139v425h-1l-78 -42l-12 46l96 53h54v-482h-59z" />
    <glyph glyph-name="Japan1.7569" 
d="M965 380q0 -95 -37 -181.5t-99.5 -148.5t-148.5 -98.5t-180 -36.5q-95 0 -181 37t-148 99t-99 148t-37 181t37 181t99 148t148 99t181 37t181 -37t148 -99t99 -148t37 -181zM500 814q-181 0 -307.5 -127.5t-126.5 -306.5q0 -180 127 -307t307 -127t307 127t127 307
t-127 307t-307 127zM305 139v425h-1l-78 -42l-12 46l96 53h53v-482h-58zM742 616v-51h-158l-17 -123q4 0 14 0.5t18 0.5q59 0 104.5 -37.5t45.5 -106.5q0 -71 -46 -116.5t-117 -45.5q-61 0 -103 27l14 47q40 -23 87 -23q46 0 75.5 29t29.5 74q-1 51 -32.5 79t-90.5 28
q-27 0 -55 -4l28 222h203z" />
    <glyph glyph-name="Japan1.7570" 
d="M965 380q0 -95 -37 -181.5t-99.5 -148.5t-148.5 -98.5t-180 -36.5q-95 0 -181 37t-148 99t-99 148t-37 181t37 181t99 148t148 99t181 37t181 -37t148 -99t99 -148t37 -181zM500 814q-181 0 -307.5 -127.5t-126.5 -306.5q0 -180 127 -307t307 -127t307 127t127 307
t-127 307t-307 127zM736 623v-52q-164 0 -191 -174h2q39 51 103 51q58 0 91.5 -41.5t33.5 -102.5q0 -67 -40 -117t-107 -50q-64 0 -104 52t-40 144q0 127 67 208.5t185 81.5zM632 181q43 0 64.5 36t21.5 88q0 42 -23 70.5t-61 28.5q-32 0 -62 -20.5t-30 -59.5q0 -65 23 -104
t67 -39zM305 139v425h-1l-78 -42l-12 46l96 53h53v-482h-58z" />
    <glyph glyph-name="Japan1.7571" 
d="M965 380q0 -95 -37 -181.5t-99.5 -148.5t-148.5 -98.5t-180 -36.5q-95 0 -181 37t-148 99t-99 148t-37 181t37 181t99 148t148 99t181 37t181 -37t148 -99t99 -148t37 -181zM500 814q-181 0 -307.5 -127.5t-126.5 -306.5q0 -180 127 -307t307 -127t307 127t127 307
t-127 307t-307 127zM305 139v425h-1l-78 -42l-12 46l96 53h53v-482h-58zM496 616h272v-41l-193 -436h-57l190 424v2h-212v51z" />
    <glyph glyph-name="Japan1.7572" 
d="M569 393l-1 2q-72 35 -72 105q0 54 39 88.5t97 34.5q57 0 92 -33t35 -82q0 -72 -76 -109v-3q91 -36 91 -123q0 -61 -44 -98.5t-104 -37.5q-63 0 -104.5 35.5t-41.5 92.5q0 86 89 128zM631 581q-39 0 -59 -23t-20 -54q0 -67 86 -91q68 24 68 90q0 32 -18.5 55t-56.5 23z
M536 274v-4q0 -38 24.5 -64.5t65.5 -26.5q44 0 68 26t24 64q0 78 -101 108q-39 -13 -60 -40t-21 -63zM965 380q0 -95 -37 -181.5t-99.5 -148.5t-148.5 -98.5t-180 -36.5q-95 0 -181 37t-148 99t-99 148t-37 181t37 181t99 148t148 99t181 37t181 -37t148 -99t99 -148
t37 -181zM500 814q-181 0 -307.5 -127.5t-126.5 -306.5q0 -180 127 -307t307 -127t307 127t127 307t-127 307t-307 127zM305 139v425h-1l-78 -42l-12 46l96 53h53v-482h-58z" />
    <glyph glyph-name="Japan1.7573" 
d="M965 380q0 -95 -37 -181.5t-99.5 -148.5t-148.5 -98.5t-180 -36.5q-95 0 -181 37t-148 99t-99 148t-37 181t37 181t99 148t148 99t181 37t181 -37t148 -99t99 -148t37 -181zM500 814q-181 0 -307.5 -127.5t-126.5 -306.5q0 -180 127 -307t307 -127t307 127t127 307
t-127 307t-307 127zM524 137v52q165 0 192 174h-2q-40 -51 -104 -51q-58 0 -91.5 41.5t-33.5 102.5q0 67 40 117t107 50q64 0 104 -52t40 -144q0 -128 -68 -209t-184 -81zM629 579q-43 0 -65 -36t-22 -88q0 -42 23 -70.5t61 -28.5t65 23t27 57q0 64 -23 103.5t-66 39.5z
M305 139v425h-1l-78 -42l-12 46l96 53h53v-482h-58z" />
    <glyph glyph-name="Japan1.7574" 
d="M672 137q-45 0 -76.5 35.5t-44.5 88t-13 117.5q0 116 38.5 180.5t101.5 64.5q64 0 97.5 -64.5t33.5 -175.5q0 -122 -37.5 -184t-99.5 -62zM674 187h1q74 0 74 194q0 192 -74 192q-19 0 -34.5 -14t-29 -61t-13.5 -123q0 -88 20 -138t56 -50zM468 144h-248v40l43 54
q38 47 55.5 70.5t40.5 58.5t31.5 63.5t8.5 56.5q0 85 -75 85q-36 0 -77 -28l-13 45q44 34 100 34q65 0 95 -39t30 -92q0 -45 -21.5 -92.5t-45.5 -79t-72 -86.5l-31 -37v-2h179v-51zM965 380q0 -95 -37 -181.5t-99.5 -148.5t-148.5 -98.5t-180 -36.5q-95 0 -181 37t-148 99
t-99 148t-37 181t37 181t99 148t148 99t181 37t181 -37t148 -99t99 -148t37 -181zM500 814q-181 0 -307.5 -127.5t-126.5 -306.5q0 -180 127 -307t307 -127t307 127t127 307t-127 307t-307 127z" />
    <glyph glyph-name="Japan1.7575" 
d="M459 771h82v-779h-82v779z" />
    <glyph glyph-name="Japan1.7576" 
d="M310 771h81v-779h-81v779zM609 771h81v-779h-81v779z" />
    <glyph glyph-name="Japan1.7577" 
d="M216 771h79v-779h-79v779zM460 771h79v-779h-79v779zM704 771h79v-779h-79v779z" />
    <glyph glyph-name="Japan1.7578" 
d="M146 771h79v-779h-79v779zM642 -8h-87l-243 779h86l123 -413q37 -128 80 -283h2q23 80 88 281l137 415h86z" />
    <glyph glyph-name="Japan1.7579" 
d="M531 -8h-93l-270 779h90l138 -416q25 -76 91 -287h2q36 116 101 285l153 418h89z" />
    <glyph glyph-name="Japan1.7580" 
d="M417 -8h-87l-244 779h87l123 -413q47 -163 79 -283h2q28 98 89 281l137 415h85zM776 771h79v-779h-79v779z" />
    <glyph glyph-name="Japan1.7581" 
d="M371 -8h-82l-241 779h80l124 -410q63 -219 79 -277h2q29 126 71 277l108 410h79zM640 771h76v-779h-76v779zM839 771h75v-779h-75v779z" />
    <glyph glyph-name="Japan1.7582" 
d="M319 -8h-75l-210 779h75l106 -410q36 -138 67 -274h2q34 167 60 274l93 410h74zM542 771h65v-779h-65v779zM700 771h65v-779h-65v779zM859 771h66v-779h-66v779z" />
    <glyph glyph-name="Japan1.7583" 
d="M137 771h78v-779h-78v779zM897 -8h-92l-105 179q-91 154 -101 173h-2q-19 -37 -92 -172l-99 -180h-89l238 399l-220 380h90l111 -200q23 -41 71 -132h1q49 95 69 131l110 201h90l-227 -378z" />
    <glyph glyph-name="Japan1.7584" 
d="M827 -8h-98l-125 180q-67 97 -114 174h-2q-36 -63 -107 -173l-117 -181h-95l272 399l-251 380h97l127 -202q52 -79 83 -133h3q33 59 80 133l128 202h96l-259 -378z" />
    <glyph glyph-name="Japan1.8061" 
d="M475 -13q-127 0 -198 102.5t-71 290.5q0 182 76.5 282.5t192.5 100.5q125 0 196.5 -97.5t71.5 -284.5q0 -189 -71.5 -291.5t-196.5 -102.5zM472 53q66 0 108.5 48t58.5 117.5t16 158.5q0 147 -45.5 233.5t-135.5 86.5q-78 0 -129 -82.5t-51 -245.5q0 -143 48 -229.5
t130 -86.5zM912 -8q-23 0 -37 15.5t-14 42.5q0 26 14 42t37 16q25 0 39 -16t14 -42q0 -58 -53 -58z" />
    <glyph glyph-name="Japan1.8062" 
d="M468 -9v681h-2l-151 -83l-26 64l191 106h72v-768h-84zM912 -8q-23 0 -37 15.5t-14 42.5q0 26 14 42t37 16q25 0 39 -16t14 -42q0 -58 -53 -58z" />
    <glyph glyph-name="Japan1.8063" 
d="M292 595l-43 59q48 54 105 81.5t138 27.5q103 0 162.5 -60t59.5 -148q0 -29 -4 -55.5t-18 -55t-23.5 -48t-36.5 -51t-40 -47t-53 -53t-55 -51.5t-65 -59l-72 -62v-2h388v-71h-517v54l85 75q175 156 225 212q92 103 98 191v13q0 63 -40.5 104t-107.5 41q-101 0 -186 -95z
M912 -8q-23 0 -37 15.5t-14 42.5q0 26 14 42t37 16q25 0 39 -16t14 -42q0 -58 -53 -58z" />
    <glyph glyph-name="Japan1.8064" 
d="M278 625l-30 62q36 32 97 54t127 22q107 0 164 -52t57 -127q0 -68 -39.5 -116.5t-118.5 -68.5v-2q82 -11 135 -60t53 -133q0 -85 -70.5 -151t-207.5 -66q-140 0 -224 70l31 65q80 -66 193 -66q93 0 139.5 47t46.5 105q0 56 -34 91t-80.5 47t-105.5 12h-67v66h67
q77 0 135 39t58 106q0 53 -37.5 88.5t-107.5 35.5q-52 0 -102 -20.5t-79 -47.5zM912 -8q-23 0 -37 15.5t-14 42.5q0 26 14 42t37 16q25 0 39 -16t14 -42q0 -58 -53 -58z" />
    <glyph glyph-name="Japan1.8065" 
d="M646 -9h-86v184h-379v56l362 528h103v-517h123v-67h-123v-184zM278 242h282v302q2 84 4 132h-4q-34 -63 -76 -127l-206 -305v-2zM912 -8q-23 0 -37 15.5t-14 42.5q0 26 14 42t37 16q25 0 39 -16t14 -42q0 -58 -53 -58z" />
    <glyph glyph-name="Japan1.8066" 
d="M277 398l47 352h376v-72h-313l-30 -207q38 6 78 6q75 0 131.5 -20t88.5 -54t47.5 -75t15.5 -88q0 -110 -79.5 -181.5t-212.5 -71.5q-59 0 -112.5 15.5t-83.5 36.5l26 69q80 -52 172 -52q84 0 141.5 47t57.5 130q0 84 -56.5 131.5t-171.5 47.5q-64 0 -122 -14zM912 -8
q-23 0 -37 15.5t-14 42.5q0 26 14 42t37 16q25 0 39 -16t14 -42q0 -58 -53 -58z" />
    <glyph glyph-name="Japan1.8067" 
d="M303 397h2q31 42 81.5 68t114.5 26q102 0 169.5 -66.5t67.5 -177.5q0 -110 -70.5 -185t-184.5 -75q-125 0 -198 88t-73 229q0 102 33 188t90 146q65 69 154.5 96.5t164.5 27.5l7 -70h-16q-130 0 -226.5 -82t-115.5 -213zM475 426q-74 0 -125 -48.5t-51 -90.5
q1 -108 50 -171t135 -63q74 0 119 50.5t45 136.5q0 89 -47 137.5t-126 48.5zM912 -8q-23 0 -37 15.5t-14 42.5q0 26 14 42t37 16q25 0 39 -16t14 -42q0 -58 -53 -58z" />
    <glyph glyph-name="Japan1.8068" 
d="M226 750h500v-60l-338 -690h-97l339 676v2h-404v72zM912 -8q-23 0 -37 15.5t-14 42.5q0 26 14 42t37 16q25 0 39 -16t14 -42q0 -58 -53 -58z" />
    <glyph glyph-name="Japan1.8069" 
d="M364 392v3q-131 50 -131 166q0 88 70.5 145t177.5 57q109 0 171 -54t62 -132q0 -123 -134 -177v-3q80 -25 123 -74t43 -115q0 -100 -80 -160.5t-193 -60.5q-117 0 -193.5 57.5t-76.5 148.5q0 139 161 199zM478 700q-77 0 -119 -38.5t-42 -91.5q0 -111 170 -144
q63 14 103.5 52t40.5 92q0 50 -38 90t-115 40zM471 51q86 0 135 43t49 100q0 71 -48.5 110t-145.5 58q-80 -15 -124 -58t-44 -100q0 -62 48 -107.5t130 -45.5zM912 -8q-23 0 -37 15.5t-14 42.5q0 26 14 42t37 16q25 0 39 -16t14 -42q0 -58 -53 -58z" />
    <glyph glyph-name="Japan1.8070" 
d="M646 353h-2q-69 -94 -196 -94q-102 0 -169 66.5t-67 177.5q0 110 70 185t184 75q126 0 198.5 -89t72.5 -228q0 -102 -33 -188.5t-90 -146.5q-59 -62 -145 -92.5t-174 -30.5l-7 70h17q131 0 226.5 82t114.5 213zM465 697q-73 0 -118 -50.5t-45 -136.5q0 -88 46.5 -137
t125.5 -49q74 0 125.5 48.5t51.5 90.5q-2 108 -51 171t-135 63zM912 -8q-23 0 -37 15.5t-14 42.5q0 26 14 42t37 16q25 0 39 -16t14 -42q0 -58 -53 -58z" />
    <glyph glyph-name="Japan1.8071" 
d="M188 845v-5q-105 -139 -105 -460v-1q0 -320 105 -459v-5h-48q-105 143 -105 465t105 465h48zM812 -85v5q105 139 105 460v1q0 320 -105 459v5h48q105 -143 105 -465t-105 -465h-48zM489 31v618h-3l-116 -65l-15 57l140 80h64v-690h-70z" />
    <glyph glyph-name="Japan1.8072" 
d="M188 845v-5q-105 -139 -105 -460v-1q0 -320 105 -459v-5h-48q-105 143 -105 465t105 465h48zM812 -85v5q105 139 105 460v1q0 320 -105 459v5h48q105 -143 105 -465t-105 -465h-48zM699 39h-400v46l68 72q132 137 186.5 216.5t54.5 158.5q0 61 -31 99.5t-100 38.5
q-66 0 -133 -53l-23 53q74 63 170 63t143.5 -57t47.5 -135q0 -91 -55.5 -177t-174.5 -208l-52 -52v-2h299v-63z" />
    <glyph glyph-name="Japan1.8073" 
d="M188 845v-5q-105 -139 -105 -460v-1q0 -320 105 -459v-5h-48q-105 143 -105 465t105 465h48zM812 -85v5q105 139 105 460v1q0 320 -105 459v5h48q105 -143 105 -465t-105 -465h-48zM303 70l21 58q63 -39 140 -39q82 0 119.5 43t37.5 99q0 72 -53 109t-129 37h-42v57h42
q59 1 107 33t48 93q0 48 -29.5 79.5t-89.5 31.5q-66 0 -125 -43l-20 54q27 21 70 36t89 15q89 0 134.5 -47.5t45.5 -113.5q0 -54 -31 -96.5t-89 -64.5v-3q64 -13 105.5 -60t41.5 -117q0 -85 -61.5 -144.5t-172.5 -59.5q-92 0 -159 43z" />
    <glyph glyph-name="Japan1.8074" 
d="M629 31h-69v200h-299v48l296 450h72v-439h97v-59h-97v-200zM344 290h217v239q0 57 4 104h-3q-26 -51 -54 -96l-164 -245v-2zM188 845v-5q-105 -139 -105 -460v-1q0 -320 105 -459v-5h-48q-105 143 -105 465t105 465h48zM812 -85v5q105 139 105 460v1q0 320 -105 459v5h48
q105 -143 105 -465t-105 -465h-48z" />
    <glyph glyph-name="Japan1.8075" 
d="M188 845v-5q-105 -139 -105 -460v-1q0 -320 105 -459v-5h-48q-105 143 -105 465t105 465h48zM812 -85v5q105 139 105 460v1q0 320 -105 459v5h48q105 -143 105 -465t-105 -465h-48zM682 721v-63h-236l-28 -191q39 3 49 3q90 0 157 -55t67 -156t-66 -166.5t-166 -65.5
q-90 0 -150 40l20 58q59 -36 130 -36q67 0 112.5 44.5t44.5 116.5q-1 75 -47.5 118.5t-135.5 43.5q-42 0 -84 -6l42 315h291z" />
    <glyph glyph-name="Japan1.8076" 
d="M656 733v-64q-116 6 -193.5 -66.5t-96.5 -202.5h2q60 74 155 74q85 0 135.5 -59.5t50.5 -147.5q0 -98 -59.5 -169t-153.5 -71q-93 0 -149 77t-56 208q0 174 80.5 283.5t203.5 130.5q45 9 81 7zM504 85q58 0 94.5 50t36.5 128q0 71 -35 113t-94 42q-53 0 -96.5 -34.5
t-43.5 -78.5q0 -103 35 -161.5t103 -58.5zM188 845v-5q-105 -139 -105 -460v-1q0 -320 105 -459v-5h-48q-105 143 -105 465t105 465h48zM812 -85v5q105 139 105 460v1q0 320 -105 459v5h48q105 -143 105 -465t-105 -465h-48z" />
    <glyph glyph-name="Japan1.8077" 
d="M188 845v-5q-105 -139 -105 -460v-1q0 -320 105 -459v-5h-48q-105 143 -105 465t105 465h48zM812 -85v5q105 139 105 460v1q0 320 -105 459v5h48q105 -143 105 -465t-105 -465h-48zM316 721h395v-50l-285 -640h-77l282 624v3h-315v63z" />
    <glyph glyph-name="Japan1.8078" 
d="M418 398v3q-56 26 -82.5 66.5t-26.5 87.5q0 78 56.5 128t141.5 50q86 0 136 -48.5t50 -117.5q0 -107 -114 -161v-4q66 -27 102 -73t36 -106q0 -87 -63.5 -141.5t-155.5 -54.5q-94 0 -154.5 52t-60.5 132q0 125 135 187zM505 678q-59 0 -91.5 -34t-32.5 -82
q-1 -99 134 -135q49 17 78.5 51t29.5 82t-29.5 83t-88.5 35zM357 222v-4q0 -56 39 -95.5t103 -39.5q67 0 105.5 37.5t38.5 94.5q0 62 -39 99t-116 60q-62 -19 -96.5 -59.5t-34.5 -92.5zM188 845v-5q-105 -139 -105 -460v-1q0 -320 105 -459v-5h-48q-105 143 -105 465
t105 465h48zM812 -85v5q105 139 105 460v1q0 320 -105 459v5h48q105 -143 105 -465t-105 -465h-48z" />
    <glyph glyph-name="Japan1.8079" 
d="M344 27v64q116 -6 193.5 66.5t96.5 202.5h-2q-60 -74 -155 -74q-85 0 -135.5 59.5t-50.5 147.5q0 98 59.5 169t153.5 71q93 0 149 -77t56 -208q0 -174 -80.5 -283.5t-203.5 -130.5q-45 -9 -81 -7zM496 675q-58 0 -94.5 -50t-36.5 -128q0 -71 35 -113t94 -42
q53 0 96.5 34.5t43.5 78.5q0 103 -35 161.5t-103 58.5zM188 845v-5q-105 -139 -105 -460v-1q0 -320 105 -459v-5h-48q-105 143 -105 465t105 465h48zM812 -85v5q105 139 105 460v1q0 320 -105 459v5h48q105 -143 105 -465t-105 -465h-48z" />
    <glyph glyph-name="Japan1.8080" 
d="M637 714q78 0 115 -91.5t37 -239.5q0 -173 -46 -255t-115 -82q-74 0 -114.5 90t-40.5 242q0 162 44.5 249t119.5 87zM540 388v-15q0 -118 23 -190t68 -72q26 0 45 24t28.5 65t13.5 85.5t4 95.5q0 120 -22.5 194t-68.5 74q-44 0 -67.5 -72t-23.5 -189zM188 845v-5
q-105 -139 -105 -460v-1q0 -320 105 -459v-5h-48q-105 143 -105 465t105 465h48zM812 -85v5q105 139 105 460v1q0 320 -105 459v5h48q105 -143 105 -465t-105 -465h-48zM292 48v597h-2l-94 -56l-9 52l114 71h56v-664h-65z" />
    <glyph glyph-name="Japan1.8081" 
d="M188 845v-5q-105 -139 -105 -460v-1q0 -320 105 -459v-5h-48q-105 143 -105 465t105 465h48zM812 -85v5q105 139 105 460v1q0 320 -105 459v5h48q105 -143 105 -465t-105 -465h-48zM322 48v597h-2l-94 -56l-10 52l114 71h56v-664h-64zM674 48v597h-2l-93 -56l-10 52
l113 71h57v-664h-65z" />
    <glyph glyph-name="Japan1.8082" 
d="M188 845v-5q-105 -139 -105 -460v-1q0 -320 105 -459v-5h-48q-105 143 -105 465t105 465h48zM812 -85v5q105 139 105 460v1q0 320 -105 459v5h48q105 -143 105 -465t-105 -465h-48zM292 48v597h-2l-94 -56l-9 52l114 71h56v-664h-65zM775 55h-297v47l50 75q6 9 32.5 48.5
t35 53t29.5 47.5t29 53.5t20 48.5t16 54.5t4 51.5q0 119 -92 119q-41 0 -89 -33l-13 55q51 39 114 39q72 0 110.5 -48t38.5 -127q0 -86 -44.5 -172t-125.5 -193l-39 -53v-2h221v-64z" />
    <glyph glyph-name="Japan1.8083" 
d="M188 845v-5q-105 -139 -105 -460v-1q0 -320 105 -459v-5h-48q-105 143 -105 465t105 465h48zM812 -85v5q105 139 105 460v1q0 320 -105 459v5h48q105 -143 105 -465t-105 -465h-48zM292 48v597h-2l-94 -56l-9 52l114 71h56v-664h-65zM473 76l14 59q44 -28 94 -28
q58 0 88 37t30 95q0 136 -156 136v57h18q44 0 81.5 30.5t37.5 87.5q0 48 -23 75t-66 27q-37 0 -80 -30l-14 55q45 37 111 37q69 0 106.5 -43.5t37.5 -106.5q0 -49 -25.5 -89t-71.5 -62v-2q50 -16 83 -59t33 -113q0 -81 -49.5 -137t-138.5 -56q-68 0 -110 30z" />
    <glyph glyph-name="Japan1.8084" 
d="M738 55h-61v178h-214v50l218 429h57v-419h70v-60h-70v-178zM529 293h149v196q0 69 5 120h-4q-18 -43 -47 -107l-103 -207v-2zM188 845v-5q-105 -139 -105 -460v-1q0 -320 105 -459v-5h-48q-105 143 -105 465t105 465h48zM812 -85v5q105 139 105 460v1q0 320 -105 459v5
h48q105 -143 105 -465t-105 -465h-48zM292 48v597h-2l-94 -56l-9 52l114 71h56v-664h-65z" />
    <glyph glyph-name="Japan1.8085" 
d="M188 845v-5q-105 -139 -105 -460v-1q0 -320 105 -459v-5h-48q-105 143 -105 465t105 465h48zM812 -85v5q105 139 105 460v1q0 320 -105 459v5h48q105 -143 105 -465t-105 -465h-48zM292 48v597h-2l-94 -56l-9 52l114 71h56v-664h-65zM505 408l40 297h221v-64h-167
l-26 -178q6 1 23 1q27 0 54 -10.5t54 -31.5t43.5 -61t16.5 -92q0 -99 -52 -161t-137 -62q-65 0 -103 28l15 57q42 -23 85 -23q54 0 88 40.5t34 111.5q0 76 -40 113t-102 37q-36 0 -47 -2z" />
    <glyph glyph-name="Japan1.8086" 
d="M753 714v-64q-34 -2 -52 -7q-63 -15 -105.5 -81.5t-53.5 -159.5h2q43 57 109 57q61 0 99.5 -53t38.5 -139q0 -90 -44 -155.5t-117 -65.5q-74 0 -114.5 72t-40.5 189q0 181 78 294t200 113zM637 101q35 0 61.5 38.5t26.5 126.5q0 69 -25 105t-65 36q-35 0 -64 -29t-29 -67
q0 -104 25.5 -157t69.5 -53zM188 845v-5q-105 -139 -105 -460v-1q0 -320 105 -459v-5h-48q-105 143 -105 465t105 465h48zM812 -85v5q105 139 105 460v1q0 320 -105 459v5h48q105 -143 105 -465t-105 -465h-48zM292 48v597h-2l-94 -56l-9 52l114 71h56v-664h-65z" />
    <glyph glyph-name="Japan1.8087" 
d="M188 845v-5q-105 -139 -105 -460v-1q0 -320 105 -459v-5h-48q-105 143 -105 465t105 465h48zM812 -85v5q105 139 105 460v1q0 320 -105 459v5h48q105 -143 105 -465t-105 -465h-48zM292 48v597h-2l-94 -56l-9 52l114 71h56v-664h-65zM485 705h296v-44l-204 -606h-64
l195 584v2h-223v64z" />
    <glyph glyph-name="Japan1.8088" 
d="M575 403v2q-44 28 -66.5 67.5t-22.5 80.5q0 72 44.5 116.5t107.5 44.5q62 0 102 -44.5t40 -108.5q0 -96 -95 -155v-2q110 -64 110 -178q0 -79 -48 -129.5t-118 -50.5q-72 0 -118 48t-46 121q0 116 110 188zM637 663q-41 0 -63.5 -30.5t-22.5 -74.5q0 -84 92 -130
q75 44 75 127q0 47 -21 77.5t-60 30.5zM630 97q47 0 74 34t27 91q0 98 -108 155q-93 -52 -93 -153q0 -57 26.5 -92t73.5 -35zM188 845v-5q-105 -139 -105 -460v-1q0 -320 105 -459v-5h-48q-105 143 -105 465t105 465h48zM812 -85v5q105 139 105 460v1q0 320 -105 459v5h48
q105 -143 105 -465t-105 -465h-48zM292 48v597h-2l-94 -56l-9 52l114 71h56v-664h-65z" />
    <glyph glyph-name="Japan1.8089" 
d="M515 46v64q34 2 52 7q65 15 106.5 84t52.5 157h-2q-45 -57 -109 -57q-62 0 -100.5 53.5t-38.5 138.5q0 90 44.5 155.5t117.5 65.5q74 0 114.5 -72t40.5 -189q0 -180 -78.5 -293.5t-199.5 -113.5zM631 659q-39 0 -64 -44t-25 -117q0 -71 25 -108t66 -37q37 0 65 31.5
t28 64.5q0 104 -25.5 157t-69.5 53zM188 845v-5q-105 -139 -105 -460v-1q0 -320 105 -459v-5h-48q-105 143 -105 465t105 465h48zM812 -85v5q105 139 105 460v1q0 320 -105 459v5h48q105 -143 105 -465t-105 -465h-48zM292 48v597h-2l-94 -56l-9 52l114 71h56v-664h-65z" />
    <glyph glyph-name="Japan1.8090" 
d="M659 46q-70 0 -106.5 89t-36.5 243q0 164 41 250t111 86q69 0 104.5 -87.5t35.5 -244.5q0 -174 -43.5 -255t-105.5 -81zM662 109q44 0 64 78.5t20 192.5q0 120 -21 195.5t-63 75.5t-62.5 -74.5t-20.5 -196.5t20.5 -196.5t62.5 -74.5zM188 845v-5q-105 -139 -105 -460v-1
q0 -320 105 -459v-5h-48q-105 143 -105 465t105 465h48zM812 -85v5q105 139 105 460v1q0 320 -105 459v5h48q105 -143 105 -465t-105 -465h-48zM458 55h-270v44l47 77q4 6 20.5 33t22.5 37.5t21 37t22 41.5t19 40t18 44t13 42t9.5 45t2.5 43q0 55 -22 86t-62 31
q-15 0 -29 -4t-22 -8t-17 -10t-11 -7l-12 52q40 35 102 35q65 0 101.5 -46t36.5 -127q0 -83 -37 -164.5t-111 -198.5l-37 -60v-2h195v-61z" />
    <glyph glyph-name="Japan1.8091" 
d="M965 380q0 -95 -37 -181.5t-99.5 -148.5t-148.5 -98.5t-180 -36.5q-95 0 -181 37t-148 99t-99 148t-37 181t37 181t99 148t148 99t181 37t181 -37t148 -99t99 -148t37 -181zM500 814q-181 0 -307.5 -127.5t-126.5 -306.5q0 -180 127 -307t307 -127t307 127t127 307
t-127 307t-307 127zM468 144h-248v40l43 54q38 47 55.5 70.5t40.5 58.5t31.5 63.5t8.5 56.5q0 85 -75 85q-36 0 -77 -28l-13 45q44 34 100 34q65 0 95 -39t30 -92q0 -45 -21.5 -92.5t-45.5 -79t-72 -86.5l-31 -37v-2h179v-51zM667 139v423h-1l-77 -43l-12 47l96 55h53v-482
h-59z" />
    <glyph glyph-name="Japan1.8092" 
d="M499 657q-26 0 -41.5 18.5t-15.5 41.5q0 24 17 42t42 18q24 0 40.5 -17.5t16.5 -42.5q0 -24 -16.5 -42t-42.5 -18zM541 -8h-82v561h82v-561z" />
    <glyph glyph-name="Japan1.8093" 
d="M349 659q-26 0 -41.5 18t-15.5 41q0 24 17 41.5t41 17.5t40.5 -17.5t16.5 -41.5t-16.5 -41.5t-41.5 -17.5zM650 659q-25 0 -40.5 18t-15.5 41q0 24 16.5 41.5t41.5 17.5q24 0 40 -17.5t16 -41.5t-16.5 -41.5t-41.5 -17.5zM389 -8h-80v561h80v-561zM691 -8h-80v561h80
v-561z" />
    <glyph glyph-name="Japan1.8094" 
d="M283 660q-26 0 -41 18t-15 40q0 24 16.5 41.5t40.5 17.5t40 -17.5t16 -41.5q0 -23 -16 -40.5t-41 -17.5zM499 660q-25 0 -40.5 18t-15.5 40q0 24 17 41.5t41 17.5t40 -17.5t16 -41.5q0 -23 -16.5 -40.5t-41.5 -17.5zM716 660q-25 0 -40.5 18t-15.5 40q0 24 16.5 41.5
t40.5 17.5t40 -17.5t16 -41.5q0 -23 -16 -40.5t-41 -17.5zM322 -8h-78v561h78v-561zM539 -8h-79v561h79v-561zM756 -8h-79v561h79v-561z" />
    <glyph glyph-name="Japan1.8095" 
d="M221 660q-27 0 -42 18t-15 40q0 24 17 41.5t41 17.5t40 -17.5t16 -41.5q0 -23 -16 -40.5t-41 -17.5zM260 -8h-79v561h79v-561zM353 553h89l117 -315q37 -103 53 -153h2q42 116 56 153l120 315h86l-231 -561h-68z" />
    <glyph glyph-name="Japan1.8096" 
d="M220 553h91l129 -324q34 -86 58 -157h3q22 65 60 157l132 324h87l-251 -561h-67z" />
    <glyph glyph-name="Japan1.8097" 
d="M780 660q-28 0 -43 18t-15 40q0 24 16 41.5t40 17.5t41 -17.5t17 -41.5q0 -23 -16 -40.5t-40 -17.5zM124 553h89l116 -315q33 -87 54 -153h2q18 52 56 153l119 315h87l-231 -561h-68zM819 -8h-79v561h79v-561z" />
    <glyph glyph-name="Japan1.8098" 
d="M665 664q-27 0 -41.5 17.5t-14.5 38.5q0 24 15 40.5t39 16.5q23 0 39 -17t16 -40t-15 -39.5t-38 -16.5zM853 664q-26 0 -41 16.5t-15 39.5q0 24 15.5 40.5t38.5 16.5t39 -17t16 -40t-15 -39.5t-38 -16.5zM81 553h86l110 -315q35 -98 52 -154h1q28 81 54 154l115 315h82
l-220 -561h-67zM701 -8h-76v561h76v-561zM889 -8h-76v561h76v-561z" />
    <glyph glyph-name="Japan1.8099" 
d="M580 667q-24 0 -37 16.5t-13 38.5q0 23 13.5 39t34.5 16t35.5 -16.5t14.5 -38.5t-13.5 -38.5t-34.5 -16.5zM730 667q-23 0 -37 16.5t-14 38.5q0 23 14 39t35 16t35.5 -16.5t14.5 -38.5t-13.5 -38.5t-34.5 -16.5zM879 667q-23 0 -36.5 16.5t-13.5 38.5q0 23 14 39t34 16
q21 0 35.5 -16.5t14.5 -38.5t-13.5 -38.5t-34.5 -16.5zM68 553h75l98 -315q24 -73 45 -154h2q16 61 47 154l101 315h73l-195 -561h-58zM612 -8h-66v561h66v-561zM761 -8h-65v561h65v-561zM911 -8h-65v561h65v-561z" />
    <glyph glyph-name="Japan1.8100" 
d="M229 660q-28 0 -43 18t-15 40q0 24 15.5 41.5t39.5 17.5q25 0 41.5 -17.5t16.5 -41.5q0 -23 -15.5 -40.5t-39.5 -17.5zM267 -8h-79v561h79v-561zM376 553h88l88 -129q8 -12 60 -95h4q27 46 62 98l84 126h84l-188 -269l201 -292h-88l-92 134l-71 108h-2q-41 -64 -70 -105
l-95 -137h-85l208 290z" />
    <glyph glyph-name="Japan1.8101" 
d="M246 553h95l96 -129q23 -30 67 -95h3q21 33 68 98l94 126h91l-209 -268l223 -293h-94l-102 134q-46 61 -78 108h-3q-37 -56 -76 -105l-105 -137h-92l230 290z" />
    <glyph glyph-name="Japan1.8102" 
d="M965 380q0 -95 -37 -181.5t-99.5 -148.5t-148.5 -98.5t-180 -36.5q-95 0 -181 37t-148 99t-99 148t-37 181t37 181t99 148t148 99t181 37t181 -37t148 -99t99 -148t37 -181zM500 814q-181 0 -307.5 -127.5t-126.5 -306.5q0 -180 127 -307t307 -127t307 127t127 307
t-127 307t-307 127zM467 144h-247v40l43 54q37 46 55.5 70.5t40.5 59t31 62.5t9 57q0 85 -76 85q-34 0 -77 -28l-13 45q46 34 101 34q65 0 94.5 -39t29.5 -92q0 -64 -33.5 -120t-104.5 -138l-32 -37v-2h179v-51zM794 144h-247v40l43 54q37 46 55.5 70.5t40.5 59t31 62.5
t9 57q0 85 -75 85q-36 0 -77 -28l-13 45q44 34 100 34q66 0 95 -39t29 -92q0 -45 -21.5 -92.5t-45 -79t-70.5 -86.5l-32 -37v-2h178v-51z" />
    <glyph glyph-name="Japan1.8103" 
d="M965 380q0 -95 -37 -181.5t-99.5 -148.5t-148.5 -98.5t-180 -36.5q-95 0 -181 37t-148 99t-99 148t-37 181t37 181t99 148t148 99t181 37t181 -37t148 -99t99 -148t37 -181zM500 814q-181 0 -307.5 -127.5t-126.5 -306.5q0 -180 127 -307t307 -127t307 127t127 307
t-127 307t-307 127zM467 144h-247v40l43 54q37 46 55.5 70.5t40.5 59t31 62.5t9 57q0 85 -76 85q-34 0 -77 -28l-13 45q46 34 101 34q65 0 94.5 -39t29.5 -92q0 -64 -33.5 -120t-104.5 -138l-32 -37v-2h179v-51zM539 161l13 47q36 -21 83 -21q51 0 75.5 26.5t24.5 63.5
q0 95 -137 95v46h20q37 1 69.5 22t32.5 62q0 32 -20 51.5t-57 19.5q-36 0 -73 -23l-12 44q41 29 98 29q60 0 91.5 -32t31.5 -79q0 -37 -21 -67t-58 -43v-1q42 -11 68.5 -43t26.5 -81q0 -57 -41.5 -98.5t-117.5 -41.5q-60 0 -97 24z" />
    <glyph glyph-name="Japan1.8104" 
d="M965 380q0 -95 -37 -181.5t-99.5 -148.5t-148.5 -98.5t-180 -36.5q-95 0 -181 37t-148 99t-99 148t-37 181t37 181t99 148t148 99t181 37t181 -37t148 -99t99 -148t37 -181zM500 814q-181 0 -307.5 -127.5t-126.5 -306.5q0 -180 127 -307t307 -127t307 127t127 307
t-127 307t-307 127zM753 139h-53v127h-186v41l182 314h57v-307h55v-48h-55v-127zM569 314h131v162q0 31 4 79h-3q-22 -49 -36 -72l-96 -168v-1zM468 144h-248v40l43 54q38 47 55.5 70.5t40.5 58.5t31.5 63.5t8.5 56.5q0 85 -75 85q-36 0 -77 -28l-13 45q44 34 100 34
q65 0 95 -39t30 -92q0 -45 -21.5 -92.5t-45.5 -79t-72 -86.5l-31 -37v-2h179v-51z" />
    <glyph glyph-name="Japan1.8105" 
d="M965 380q0 -95 -37 -181.5t-99.5 -148.5t-148.5 -98.5t-180 -36.5q-95 0 -181 37t-148 99t-99 148t-37 181t37 181t99 148t148 99t181 37t181 -37t148 -99t99 -148t37 -181zM500 814q-181 0 -307.5 -127.5t-126.5 -306.5q0 -180 127 -307t307 -127t307 127t127 307
t-127 307t-307 127zM468 144h-248v40l43 54q38 47 55.5 70.5t40.5 58.5t31.5 63.5t8.5 56.5q0 85 -75 85q-36 0 -77 -28l-13 45q44 34 100 34q65 0 95 -39t30 -92q0 -45 -21.5 -92.5t-45.5 -79t-72 -86.5l-31 -37v-2h179v-51zM782 616v-51h-141l-18 -124q7 1 24 1
q51 0 94.5 -37t43.5 -106q0 -70 -43.5 -116t-110.5 -46q-55 0 -91 23l13 47q38 -19 76 -19q43 0 70 27.5t27 73.5q0 59 -34.5 83.5t-80.5 24.5q-29 0 -44 -3l28 222h187z" />
    <glyph glyph-name="Japan1.8106" 
d="M767 623v-52q-145 0 -169 -173h2q34 44 87 44q52 0 84 -40t32 -101q0 -66 -37.5 -115t-100.5 -49q-59 0 -94 52t-35 142q0 54 13.5 104t40 93t72.5 69t105 26zM746 295q0 49 -20 76t-54 27q-14 0 -29 -4t-31.5 -24t-16.5 -53q0 -65 20 -100.5t56 -35.5q35 0 55 31.5
t20 82.5zM468 144h-248v40l43 54q38 47 55.5 70.5t40.5 58.5t31.5 63.5t8.5 56.5q0 85 -75 85q-36 0 -77 -28l-13 45q44 34 100 34q65 0 95 -39t30 -92q0 -45 -21.5 -92.5t-45.5 -79t-72 -86.5l-31 -37v-2h179v-51zM965 380q0 -95 -37 -181.5t-99.5 -148.5t-148.5 -98.5
t-180 -36.5q-95 0 -181 37t-148 99t-99 148t-37 181t37 181t99 148t148 99t181 37t181 -37t148 -99t99 -148t37 -181zM500 814q-181 0 -307.5 -127.5t-126.5 -306.5q0 -180 127 -307t307 -127t307 127t127 307t-127 307t-307 127z" />
    <glyph glyph-name="Japan1.8107" 
d="M965 380q0 -95 -37 -181.5t-99.5 -148.5t-148.5 -98.5t-180 -36.5q-95 0 -181 37t-148 99t-99 148t-37 181t37 181t99 148t148 99t181 37t181 -37t148 -99t99 -148t37 -181zM500 814q-181 0 -307.5 -127.5t-126.5 -306.5q0 -180 127 -307t307 -127t307 127t127 307
t-127 307t-307 127zM467 144h-247v40l43 54q37 46 55.5 70.5t40.5 59t31 62.5t9 57q0 85 -76 85q-34 0 -77 -28l-13 45q46 34 101 34q65 0 94.5 -39t29.5 -92q0 -64 -33.5 -120t-104.5 -138l-32 -37v-2h179v-51zM545 616h249v-40l-171 -437h-55l166 424v2h-189v51z" />
    <glyph glyph-name="Japan1.8108" 
d="M720 399v-2q89 -42 89 -126q0 -60 -42 -97t-101 -37q-61 0 -100.5 35t-39.5 90q0 84 87 132v2q-71 37 -71 105q0 54 38 87.5t94 33.5q52 0 86.5 -32t34.5 -81q0 -71 -75 -110zM672 581q-38 0 -56.5 -22.5t-18.5 -53.5q0 -64 81 -92q64 30 64 90q0 33 -17.5 55.5
t-52.5 22.5zM668 179q42 0 63.5 25t21.5 64q0 73 -95 108q-34 -15 -55 -43.5t-21 -63.5q0 -39 22.5 -64.5t63.5 -25.5zM965 380q0 -95 -37 -181.5t-99.5 -148.5t-148.5 -98.5t-180 -36.5q-95 0 -181 37t-148 99t-99 148t-37 181t37 181t99 148t148 99t181 37t181 -37
t148 -99t99 -148t37 -181zM500 814q-181 0 -307.5 -127.5t-126.5 -306.5q0 -180 127 -307t307 -127t307 127t127 307t-127 307t-307 127zM467 144h-247v40l43 54q37 46 55.5 70.5t40.5 59t31 62.5t9 57q0 85 -76 85q-34 0 -77 -28l-13 45q46 34 101 34q65 0 94.5 -39
t29.5 -92q0 -64 -33.5 -120t-104.5 -138l-32 -37v-2h179v-51z" />
    <glyph glyph-name="Japan1.8109" 
d="M747 362h-2q-34 -44 -87 -44q-52 0 -84 40t-32 101q0 66 37.5 115t100.5 49q59 0 94 -52t35 -142q0 -52 -12.5 -101t-38.5 -93t-72.5 -71t-107.5 -27v52q144 0 169 173zM600 465q0 -49 20 -76t53 -27q31 0 54.5 20.5t23.5 60.5q0 65 -20.5 100.5t-56.5 35.5
q-33 0 -53.5 -30.5t-20.5 -83.5zM468 144h-248v40l43 54q38 47 55.5 70.5t40.5 58.5t31.5 63.5t8.5 56.5q0 85 -75 85q-36 0 -77 -28l-13 45q44 34 100 34q65 0 95 -39t30 -92q0 -45 -21.5 -92.5t-45.5 -79t-72 -86.5l-31 -37v-2h179v-51zM965 380q0 -95 -37 -181.5
t-99.5 -148.5t-148.5 -98.5t-180 -36.5q-95 0 -181 37t-148 99t-99 148t-37 181t37 181t99 148t148 99t181 37t181 -37t148 -99t99 -148t37 -181zM500 814q-181 0 -307.5 -127.5t-126.5 -306.5q0 -180 127 -307t307 -127t307 127t127 307t-127 307t-307 127z" />
    <glyph glyph-name="Japan1.8110" 
d="M965 380q0 -95 -37 -181.5t-99.5 -148.5t-148.5 -98.5t-180 -36.5q-95 0 -181 37t-148 99t-99 148t-37 181t37 181t99 148t148 99t181 37t181 -37t148 -99t99 -148t37 -181zM500 814q-181 0 -307.5 -127.5t-126.5 -306.5q0 -180 127 -307t307 -127t307 127t127 307
t-127 307t-307 127zM672 137q-47 0 -78.5 37.5t-43.5 89.5t-12 114q0 115 38 180t102 65q66 0 98.5 -65t32.5 -174q0 -124 -38.5 -185.5t-98.5 -61.5zM598 381v-7q0 -90 19.5 -138.5t56.5 -48.5h1q74 0 74 194q0 192 -74 192q-37 0 -57 -51t-20 -141zM217 161l12 47
q34 -21 81 -21q49 0 72.5 26.5t23.5 63.5q0 95 -132 95v46q117 0 117 84q0 32 -19 51.5t-54 19.5q-38 0 -70 -23l-13 44q41 29 96 29q58 0 88.5 -32.5t30.5 -78.5q0 -37 -20 -67t-57 -43v-1q41 -11 67 -43t26 -81q0 -56 -41 -98t-114 -42q-59 0 -94 24z" />
    <glyph glyph-name="Japan1.8111" 
d="M965 380q0 -95 -37 -181.5t-99.5 -148.5t-148.5 -98.5t-180 -36.5q-95 0 -181 37t-148 99t-99 148t-37 181t37 181t99 148t148 99t181 37t181 -37t148 -99t99 -148t37 -181zM500 814q-181 0 -307.5 -127.5t-126.5 -306.5q0 -180 127 -307t307 -127t307 127t127 307
t-127 307t-307 127zM220 161l12 47q34 -21 81 -21q49 0 73 26.5t24 63.5q-1 47 -33.5 71t-80.5 24h-19v46q117 0 117 84q0 32 -19 51.5t-55 19.5t-70 -23l-11 44q39 29 95 29q59 0 89.5 -32t30.5 -79q0 -37 -20.5 -67t-57.5 -43v-1q41 -11 67 -43t26 -81q0 -56 -40.5 -98
t-113.5 -42q-58 0 -95 24zM667 139v423h-1l-77 -43l-12 47l96 55h53v-482h-59z" />
    <glyph glyph-name="Japan1.8112" 
d="M682 413v-192q0 -75 8 -127h-67l-8 77h-2q-21 -36 -60 -58t-92 -22q-68 0 -106.5 42.5t-38.5 101.5q0 90 76 138t216 48q0 141 -115 141q-67 0 -124 -38l-18 52q65 42 154 42q45 0 78 -13t51.5 -32.5t29.5 -48t14.5 -54.5t3.5 -57zM611 261v110q-41 0 -77 -6t-71.5 -19
t-56.5 -39t-21 -62q0 -48 26.5 -73.5t63.5 -25.5q60 0 98 35.5t38 79.5zM188 845v-5q-105 -139 -105 -460v-1q0 -320 105 -459v-5h-48q-105 143 -105 465t105 465h48zM812 -85v5q105 139 105 460v1q0 320 -105 459v5h48q105 -143 105 -465t-105 -465h-48z" />
    <glyph glyph-name="Japan1.8113" 
d="M323 139v611h71v-302h3q45 86 138 86q77 0 122.5 -70t45.5 -187q0 -131 -52.5 -200.5t-128.5 -69.5q-90 0 -132 86h-3l-5 -84h-63q4 47 4 130zM394 330v-127q0 -43 30 -89.5t85 -46.5q59 0 91 58t32 149q0 86 -31.5 142.5t-91.5 56.5q-51 0 -83 -46.5t-32 -96.5zM187 845
v-5q-106 -141 -106 -460v-1q0 -318 106 -459v-5h-47q-105 143 -105 465t105 465h47zM813 -85v5q106 141 106 460v1q0 318 -106 459v5h47q105 -143 105 -465t-105 -465h-47z" />
    <glyph glyph-name="Japan1.8114" 
d="M187 845v-5q-106 -141 -106 -460v-1q0 -318 106 -459v-5h-47q-105 143 -105 465t105 465h47zM813 -85v5q106 141 106 460v1q0 318 -106 459v5h47q105 -143 105 -465t-105 -465h-47zM661 176l14 -58q-54 -27 -125 -27q-105 0 -168.5 70.5t-63.5 188.5t69.5 193t179.5 75
q66 0 112 -24l-18 -58q-46 23 -98 23q-80 0 -127 -60t-47 -145q0 -93 47.5 -148t123.5 -55q53 0 101 25z" />
    <glyph glyph-name="Japan1.8115" 
d="M605 750h71v-611q0 -60 4 -130h-63l-4 84h-3q-44 -86 -136 -86q-79 0 -127 70.5t-48 187.5q0 127 52.5 197.5t130.5 70.5q81 0 121 -71h2v288zM605 205v125q0 63 -32 103t-78 40q-59 0 -92 -58.5t-33 -147.5q0 -86 31.5 -143t89.5 -57q54 0 84 45.5t30 92.5zM187 845v-5
q-106 -141 -106 -460v-1q0 -318 106 -459v-5h-47q-105 143 -105 465t105 465h47zM813 -85v5q106 141 106 460v1q0 318 -106 459v5h47q105 -143 105 -465t-105 -465h-47z" />
    <glyph glyph-name="Japan1.8116" 
d="M696 347h-326q-3 -97 45 -148t120 -51q67 0 123 28l14 -55q-60 -30 -148 -30q-104 0 -164 69.5t-60 183.5q0 126 60.5 200t153.5 74q52 0 90 -21.5t57.5 -57t28.5 -73t9 -78.5q0 -26 -3 -41zM370 400h262q1 66 -29 114.5t-95 48.5q-61 0 -96.5 -49.5t-41.5 -113.5z
M187 845v-5q-106 -141 -106 -460v-1q0 -318 106 -459v-5h-47q-105 143 -105 465t105 465h47zM813 -85v5q106 141 106 460v1q0 318 -106 459v5h47q105 -143 105 -465t-105 -465h-47z" />
    <glyph glyph-name="Japan1.8117" 
d="M187 845v-5q-106 -141 -106 -460v-1q0 -318 106 -459v-5h-47q-105 143 -105 465t105 465h47zM813 -85v5q106 141 106 460v1q0 318 -106 459v5h47q105 -143 105 -465t-105 -465h-47zM495 9h-71v442h-75v55h75q0 33 1 52t6 49.5t17.5 55t32.5 44.5q47 45 120 45
q54 0 84 -17l-16 -56q-26 14 -63 14q-27 0 -47 -8.5t-31.5 -26t-18.5 -33.5t-10 -42t-3.5 -39.5t-0.5 -37.5h134v-55h-134v-442z" />
    <glyph glyph-name="Japan1.8118" 
d="M677 505v-296q0 -94 -14 -145t-43 -81q-54 -55 -152 -55q-79 0 -131 33l18 57q50 -32 117 -32q63 0 98.5 43.5t35.5 131.5v59h-2q-39 -74 -128 -74q-81 0 -128 70.5t-47 179.5q0 128 55 197t130 69q87 0 125 -78h2l4 76h64q-4 -78 -4 -155zM606 339v130q0 57 -32.5 94.5
t-75.5 37.5q-58 0 -92 -56.5t-34 -145.5q0 -88 34 -141.5t90 -53.5q43 0 76.5 38t33.5 97zM187 845v-5q-106 -141 -106 -460v-1q0 -318 106 -459v-5h-47q-105 143 -105 465t105 465h47zM813 -85v5q106 141 106 460v1q0 318 -106 459v5h47q105 -143 105 -465t-105 -465h-47z
" />
    <glyph glyph-name="Japan1.8119" 
d="M187 845v-5q-106 -141 -106 -460v-1q0 -318 106 -459v-5h-47q-105 143 -105 465t105 465h47zM813 -85v5q106 141 106 460v1q0 318 -106 459v5h47q105 -143 105 -465t-105 -465h-47zM323 9v741h71v-301h2q21 37 60 61t83 24q56 0 102 -47.5t46 -155.5v-322h-71v319
q0 63 -24 104t-78 41q-48 0 -84 -40t-36 -101v-323h-71z" />
    <glyph glyph-name="Japan1.8120" 
d="M187 845v-5q-106 -141 -106 -460v-1q0 -318 106 -459v-5h-47q-105 143 -105 465t105 465h47zM813 -85v5q106 141 106 460v1q0 318 -106 459v5h47q105 -143 105 -465t-105 -465h-47zM499 630q-22 0 -36 16.5t-14 38.5q0 24 15 40.5t36 16.5t36 -16.5t15 -40.5
q0 -23 -15 -39t-37 -16zM535 17h-71v522h71v-522z" />
    <glyph glyph-name="Japan1.8121" 
d="M187 845v-5q-106 -141 -106 -460v-1q0 -318 106 -459v-5h-47q-105 143 -105 465t105 465h47zM813 -85v5q106 141 106 460v1q0 318 -106 459v5h47q105 -143 105 -465t-105 -465h-47zM516 662q-22 0 -36 17t-14 38q0 24 15.5 41t36.5 17t36 -17t15 -41q0 -23 -15.5 -39
t-37.5 -16zM348 -61l-6 57q26 1 46 5.5t34.5 15t24.5 21t16.5 29.5t10 32.5t5 40t2 41.5t0.5 45v340h72v-372q0 -31 -1.5 -52t-7 -54t-19 -55.5t-35 -45t-58 -35t-84.5 -13.5z" />
    <glyph glyph-name="Japan1.8122" 
d="M187 845v-5q-106 -141 -106 -460v-1q0 -318 106 -459v-5h-47q-105 143 -105 465t105 465h47zM813 -85v5q106 141 106 460v1q0 318 -106 459v5h47q105 -143 105 -465t-105 -465h-47zM405 750v-467h2q18 30 42 64l145 185h79l-178 -219l198 -304h-82l-165 257l-41 -52v-205
h-71v741h71z" />
    <glyph glyph-name="Japan1.8123" 
d="M187 845v-5q-106 -141 -106 -460v-1q0 -318 106 -459v-5h-47q-105 143 -105 465t105 465h47zM813 -85v5q106 141 106 460v1q0 318 -106 459v5h47q105 -143 105 -465t-105 -465h-47zM464 9v741h71v-741h-71z" />
    <glyph glyph-name="Japan1.8124" 
d="M187 845v-5q-106 -141 -106 -460v-1q0 -318 106 -459v-5h-47q-105 143 -105 465t105 465h47zM813 -85v5q106 141 106 460v1q0 318 -106 459v5h47q105 -143 105 -465t-105 -465h-47zM260 94v392q0 50 -4 130h56l3 -63h3q32 65 100 65q78 0 99 -67h3q30 67 110 67
q110 0 110 -157v-367h-64v338q0 29 -1.5 46t-7.5 37.5t-20.5 30t-38.5 9.5q-26 0 -47 -19.5t-27 -57.5q-3 -18 -3 -51v-333h-63v342q0 57 -14 88t-55 31q-75 0 -75 -130v-331h-64z" />
    <glyph glyph-name="Japan1.8125" 
d="M187 845v-5q-106 -141 -106 -460v-1q0 -318 106 -459v-5h-47q-105 143 -105 465t105 465h47zM813 -85v5q106 141 106 460v1q0 318 -106 459v5h47q105 -143 105 -465t-105 -465h-47zM318 94v386q0 36 -4 136h63l4 -86h1q21 41 60 64.5t88 23.5q25 0 49.5 -9.5t49 -30
t39 -61.5t14.5 -97v-326h-71v320q0 62 -24 103t-79 41q-47 0 -83 -39.5t-36 -102.5v-322h-71z" />
    <glyph glyph-name="Japan1.8126" 
d="M500 91q-91 0 -147 70.5t-56 191.5q0 128 60 196.5t145 68.5q90 0 145.5 -69t55.5 -191q0 -70 -18.5 -124t-49.5 -84t-65 -44.5t-70 -14.5zM500 148q62 0 97 63.5t35 145.5q0 34 -7 67.5t-21 65.5t-41 52t-62 20t-62 -19t-42 -50.5t-22 -66.5t-7 -71q0 -86 34.5 -146.5
t97.5 -60.5zM187 845v-5q-106 -141 -106 -460v-1q0 -318 106 -459v-5h-47q-105 143 -105 465t105 465h47zM813 -85v5q106 141 106 460v1q0 318 -106 459v5h47q105 -143 105 -465t-105 -465h-47z" />
    <glyph glyph-name="Japan1.8127" 
d="M323 -61v553q0 70 -4 168h65l5 -86h2q44 88 138 88q81 0 127.5 -71t46.5 -188q0 -133 -51.5 -200.5t-133.5 -67.5q-84 0 -122 74h-2v-270h-71zM394 456v-121q0 -59 32 -99.5t81 -40.5q60 0 92.5 58.5t32.5 148.5q0 86 -32 143t-91 57q-46 0 -80.5 -42t-34.5 -104z
M187 845v-5q-106 -141 -106 -460v-1q0 -318 106 -459v-5h-47q-105 143 -105 465t105 465h47zM813 -85v5q106 141 106 460v1q0 318 -106 459v5h47q105 -143 105 -465t-105 -465h-47z" />
    <glyph glyph-name="Japan1.8128" 
d="M606 -61v272h-3q-15 -33 -49 -54.5t-80 -21.5q-79 0 -128 69.5t-49 185.5q0 131 56 201.5t136 70.5q41 0 74 -21t50 -59h2l4 78h63q-5 -62 -5 -154v-567h-71zM606 334v127q0 62 -32.5 101.5t-78.5 39.5q-60 0 -93.5 -57t-33.5 -149q0 -86 32 -143.5t93 -57.5
q46 0 79.5 41t33.5 98zM187 845v-5q-106 -141 -106 -460v-1q0 -318 106 -459v-5h-47q-105 143 -105 465t105 465h47zM813 -85v5q106 141 106 460v1q0 318 -106 459v5h47q105 -143 105 -465t-105 -465h-47z" />
    <glyph glyph-name="Japan1.8129" 
d="M187 845v-5q-106 -141 -106 -460v-1q0 -318 106 -459v-5h-47q-105 143 -105 465t105 465h47zM813 -85v5q106 141 106 460v1q0 318 -106 459v5h47q105 -143 105 -465t-105 -465h-47zM373 94v309q0 151 -4 213h67l3 -142h5q56 144 185 144q25 0 41 -4v-68q-17 4 -52 4
q-45 0 -81 -25t-55 -60.5t-28.5 -66.5t-9.5 -51v-253h-71z" />
    <glyph glyph-name="Japan1.8130" 
d="M187 845v-5q-106 -141 -106 -460v-1q0 -318 106 -459v-5h-47q-105 143 -105 465t105 465h47zM813 -85v5q106 141 106 460v1q0 318 -106 459v5h47q105 -143 105 -465t-105 -465h-47zM320 130l19 56q64 -38 145 -38q60 0 92.5 26.5t32.5 59.5q0 37 -28.5 58.5t-92.5 38.5
q-85 24 -117.5 59.5t-32.5 84.5q0 58 48.5 100.5t136.5 42.5q79 0 134 -33l-19 -54q-57 31 -126 31q-47 0 -76.5 -23.5t-29.5 -54.5q0 -38 26 -57t92 -39q84 -24 118.5 -59.5t34.5 -92.5q0 -62 -52.5 -103.5t-148.5 -41.5q-85 0 -156 39z" />
    <glyph glyph-name="Japan1.8131" 
d="M187 845v-5q-106 -141 -106 -460v-1q0 -318 106 -459v-5h-47q-105 143 -105 465t105 465h47zM813 -85v5q106 141 106 460v1q0 318 -106 459v5h47q105 -143 105 -465t-105 -465h-47zM425 671l71 23v-116h152v-54h-152v-304q0 -101 78 -101q36 0 62 8l4 -55
q-31 -12 -81 -12q-134 0 -134 165v299h-88v54h88v93z" />
    <glyph glyph-name="Japan1.8132" 
d="M187 845v-5q-106 -141 -106 -460v-1q0 -318 106 -459v-5h-47q-105 143 -105 465t105 465h47zM813 -85v5q106 141 106 460v1q0 318 -106 459v5h47q105 -143 105 -465t-105 -465h-47zM682 616v-383q0 -55 4 -139l-63 -1l-4 81h-2q-50 -83 -147 -83q-68 0 -110 49t-42 164
v312h71v-300q0 -164 102 -164q50 0 85 40t35 95v329h71z" />
    <glyph glyph-name="Japan1.8133" 
d="M187 845v-5q-106 -141 -106 -460v-1q0 -318 106 -459v-5h-47q-105 143 -105 465t105 465h47zM813 -85v5q106 141 106 460v1q0 318 -106 459v5h47q105 -143 105 -465t-105 -465h-47zM299 616h76l88 -303q19 -67 36 -135h3q21 81 38 135l90 303h70l-171 -522h-62z" />
    <glyph glyph-name="Japan1.8134" 
d="M187 845v-5q-106 -141 -106 -460v-1q0 -318 106 -459v-5h-47q-105 143 -105 465t105 465h47zM813 -85v5q106 141 106 460v1q0 318 -106 459v5h47q105 -143 105 -465t-105 -465h-47zM233 616h65l58 -259q21 -90 32 -157h3q4 21 14 75t16 79l59 262h46l58 -254
q20 -84 33 -162h3q16 88 32 158l54 258h59l-124 -522h-47l-65 269q-17 83 -25 150h-3q-13 -82 -26 -154l-62 -265h-51z" />
    <glyph glyph-name="Japan1.8135" 
d="M187 845v-5q-106 -141 -106 -460v-1q0 -318 106 -459v-5h-47q-105 143 -105 465t105 465h47zM813 -85v5q106 141 106 460v1q0 318 -106 459v5h47q105 -143 105 -465t-105 -465h-47zM319 616h78l59 -120q27 -55 46 -96h3q7 16 23 48t23 48l60 120h72l-142 -256l146 -266
h-77l-65 126q-32 66 -48 98h-1q-44 -94 -46 -98l-65 -126h-72l145 264z" />
    <glyph glyph-name="Japan1.8136" 
d="M187 845v-5q-106 -141 -106 -460v-1q0 -318 106 -459v-5h-47q-105 143 -105 465t105 465h47zM813 -85v5q106 141 106 460v1q0 318 -106 459v5h47q105 -143 105 -465t-105 -465h-47zM305 667h77l92 -312q24 -79 29 -101h2q10 36 31 102l87 311h72l-120 -368
q-36 -101 -49 -135.5t-38 -82t-55 -78.5q-47 -48 -92 -64l-23 59q44 20 80 55q28 28 48 66.5t20 56.5q0 11 -4 23z" />
    <glyph glyph-name="Japan1.8137" 
d="M187 845v-5q-106 -141 -106 -460v-1q0 -318 106 -459v-5h-47q-105 143 -105 465t105 465h47zM813 -85v5q106 141 106 460v1q0 318 -106 459v5h47q105 -143 105 -465t-105 -465h-47zM327 101v44l211 327l50 75v2h-241v60h325v-46l-212 -326q-23 -37 -49 -74v-2h262v-60
h-346z" />
    <glyph glyph-name="Japan1.8184" 
d="M216 323v399h-1l-84 -45l-11 49l103 53h55v-456h-62zM250 -22h-56l483 804h56zM914 -14h-333v39l56 47q120 102 160.5 148t41.5 92q0 38 -24.5 65t-73.5 27q-59 0 -115 -51l-28 43q66 61 151 61q73 0 113 -41.5t40 -95.5q0 -62 -42.5 -114.5t-141.5 -132.5l-43 -33v-1
h239v-53z" />
    <glyph glyph-name="Japan1.8185" 
d="M848 -20h-62v115h-249v43l237 316h74v-309h80v-50h-80v-115zM602 145h186v182q0 20 2 68l-6 1q-30 -50 -40 -65l-142 -184v-2zM213 323v399h-1l-83 -45l-12 49l104 53h55v-456h-63zM259 -22h-56l483 804h56z" />
    <glyph glyph-name="Japan1.8224" 
d="M965 380q0 -95 -37 -181.5t-99.5 -148.5t-148.5 -98.5t-180 -36.5q-95 0 -181 37t-148 99t-99 148t-37 181t37 181t99 148t148 99t181 37t181 -37t148 -99t99 -148t37 -181zM500 814q-181 0 -307.5 -127.5t-126.5 -306.5q0 -180 127 -307t307 -127t307 127t127 307
t-127 307t-307 127zM496 120q-47 0 -83 23t-57.5 60.5t-32 82t-10.5 91.5q0 122 54.5 193t137.5 71q87 0 134 -67.5t47 -184.5q0 -129 -49.5 -199t-140.5 -70zM499 173q119 0 119 210q0 204 -118 204q-11 0 -21.5 -2t-29.5 -14.5t-32.5 -33.5t-24 -64t-10.5 -101
q0 -93 31.5 -146t85.5 -53z" />
    <glyph glyph-name="Japan1.8225" 
d="M683 -8h-91l-106 179q-18 31 -40.5 69t-36.5 62t-24 42h-1q-26 -51 -93 -172l-99 -180h-89l238 399l-220 380h91l110 -200q23 -41 71 -132h2q37 76 69 131l110 201h89l-227 -378zM785 771h79v-779h-79v779z" />
    <glyph glyph-name="Japan1.8226" 
d="M582 -8h-89l-93 177q-70 128 -89 172h-2q-14 -32 -82 -171l-86 -178h-88l215 399l-198 380h87l98 -199q28 -56 62 -130h2q16 38 59 129l97 200h88l-204 -377zM644 771h75v-779h-75v779zM839 771h75v-779h-75v779z" />
    <glyph glyph-name="Japan1.8227" 
d="M495 26q-68 0 -116 48.5t-69.5 126t-21.5 175.5q0 171 61 263.5t157 92.5q97 0 151.5 -90.5t54.5 -256.5q0 -176 -58.5 -267.5t-158.5 -91.5zM499 88q50 0 82 42t44.5 105t12.5 146q0 133 -34.5 211t-103.5 78q-57 0 -97.5 -72t-40.5 -227q0 -130 36.5 -206.5
t100.5 -76.5zM188 845v-5q-105 -139 -105 -460v-1q0 -320 105 -459v-5h-48q-105 143 -105 465t105 465h48zM812 -85v5q105 139 105 460v1q0 320 -105 459v5h48q105 -143 105 -465t-105 -465h-48z" />
    <glyph glyph-name="Japan1.8228" 
d="M723 770l52 -35l-62 -95q56 -96 56 -259q0 -189 -71.5 -291.5t-197.5 -102.5q-106 0 -171 74l-52 -81l-52 35l63 97q-57 104 -57 268q0 182 76.5 282.5t192.5 100.5q107 0 172 -71zM351 201l275 424q-45 72 -126 72q-76 0 -128 -81.5t-52 -248.5q0 -100 31 -166zM651 551
l-276 -424q47 -74 123 -74q50 0 86.5 27t57 74.5t29.5 102.5t9 120q0 106 -29 174z" />
    <glyph glyph-name="Japan1.8286" 
d="M500 845q95 0 181.5 -37t148.5 -99.5t98.5 -148.5t36.5 -180q0 -95 -37 -181t-99 -148t-148 -99t-181 -37t-181 37t-148 99t-99 148t-37 181t37 181t99 148t148 99t181 37zM460 540v-424h109v525h-94l-134 -63l19 -85l98 47h2z" />
    <glyph glyph-name="Japan1.8287" 
d="M500 845q95 0 181.5 -37t148.5 -99.5t98.5 -148.5t36.5 -180q0 -95 -37 -181t-99 -148t-148 -99t-181 -37t-181 37t-148 99t-99 148t-37 181t37 181t99 148t148 99t181 37zM312 119h376v94h-214v1l49 38q78 67 116 119.5t38 114.5q0 70 -48.5 116.5t-135.5 46.5
q-102 0 -174 -58l33 -80q61 46 118 46q48 0 70.5 -23t22.5 -59q-1 -44 -40 -90t-145 -139l-66 -59v-68z" />
    <glyph glyph-name="Japan1.8288" 
d="M500 845q95 0 181.5 -37t148.5 -99.5t98.5 -148.5t36.5 -180q0 -95 -37 -181t-99 -148t-148 -99t-181 -37t-181 37t-148 99t-99 148t-37 181t37 181t99 148t148 99t181 37zM337 233l-24 -86q60 -38 158 -38q100 0 158 45t58 114q0 50 -33.5 84.5t-84.5 43.5v2
q99 33 99 121q0 55 -45.5 92.5t-128.5 37.5q-99 0 -165 -42l25 -82q54 33 115 33q41 0 62 -16.5t21 -41.5q0 -32 -30.5 -48t-70.5 -16h-50v-82h52q47 0 82 -20.5t35 -59.5q0 -31 -26.5 -52.5t-78.5 -21.5q-67 0 -128 33z" />
    <glyph glyph-name="Japan1.8289" 
d="M500 845q95 0 181.5 -37t148.5 -99.5t98.5 -148.5t36.5 -180q0 -95 -37 -181t-99 -148t-148 -99t-181 -37t-181 37t-148 99t-99 148t-37 181t37 181t99 148t148 99t181 37zM524 116h109v127h67v87h-67v312h-139l-214 -323v-76h244v-127zM524 464v-134h-136v2l91 134
q25 44 46 89h3q-4 -64 -4 -91z" />
    <glyph glyph-name="Japan1.8290" 
d="M500 845q95 0 181.5 -37t148.5 -99.5t98.5 -148.5t36.5 -180q0 -95 -37 -181t-99 -148t-148 -99t-181 -37t-181 37t-148 99t-99 148t-37 181t37 181t99 148t148 99t181 37zM666 546v93h-291l-34 -269q37 5 76 5q153 0 153 -92q0 -41 -33 -63t-79 -22q-67 0 -123 28
l-22 -86q60 -31 149 -31q104 0 164 52t60 129q0 89 -61.5 129.5t-143.5 40.5q-19 0 -39 -3l13 89h211z" />
    <glyph glyph-name="Japan1.8291" 
d="M500 845q95 0 181.5 -37t148.5 -99.5t98.5 -148.5t36.5 -180q0 -95 -37 -181t-99 -148t-148 -99t-181 -37t-181 37t-148 99t-99 148t-37 181t37 181t99 148t148 99t181 37zM413 418h-1q14 65 67 103t146 38q14 0 21 -1v89q-9 1 -32 1q-70 0 -126 -18t-91.5 -47.5
t-58.5 -71t-32.5 -84.5t-9.5 -92q0 -100 52 -163t147 -63q87 0 144 55.5t57 133.5q0 72 -47.5 117.5t-119.5 45.5q-75 0 -116 -43zM412 309v3q0 35 28.5 51t57.5 16q39 0 61.5 -25t22.5 -62q0 -42 -23 -70.5t-59 -28.5q-45 0 -66.5 34t-21.5 82z" />
    <glyph glyph-name="Japan1.8292" 
d="M500 845q95 0 181.5 -37t148.5 -99.5t98.5 -148.5t36.5 -180q0 -95 -37 -181t-99 -148t-148 -99t-181 -37t-181 37t-148 99t-99 148t-37 181t37 181t99 148t148 99t181 37zM700 639h-374v-94h253v-1l-227 -428h121l227 450v73z" />
    <glyph glyph-name="Japan1.8293" 
d="M500 845q95 0 181.5 -37t148.5 -99.5t98.5 -148.5t36.5 -180q0 -95 -37 -181t-99 -148t-148 -99t-181 -37t-181 37t-148 99t-99 148t-37 181t37 181t99 148t148 99t181 37zM600 397v2q79 37 79 116q0 54 -44.5 94t-130.5 40q-82 0 -134.5 -41.5t-52.5 -105.5
q0 -77 80 -115v-2q-98 -40 -98 -131q0 -60 52 -102.5t146 -42.5q90 0 147 43.5t57 114.5q0 48 -28 81.5t-73 48.5zM501 572q38 0 56 -21.5t18 -47.5q0 -27 -18 -46.5t-45 -24.5q-85 20 -85 74q0 27 20 46.5t54 19.5zM501 187q-38 0 -61.5 23.5t-23.5 55.5q0 30 19.5 52
t54.5 29q96 -22 96 -89q0 -29 -23 -50t-62 -21z" />
    <glyph glyph-name="Japan1.8294" 
d="M500 845q95 0 181.5 -37t148.5 -99.5t98.5 -148.5t36.5 -180q0 -95 -37 -181t-99 -148t-148 -99t-181 -37t-181 37t-148 99t-99 148t-37 181t37 181t99 148t148 99t181 37zM354 200v-89q9 -1 32 -1q70 0 126 18t91.5 47.5t58.5 71t32.5 84.5t9.5 92q0 100 -52 163
t-147 63q-87 0 -144 -55.5t-57 -133.5q0 -72 47.5 -117.5t119.5 -45.5q75 0 116 43h1q-14 -65 -67 -103t-146 -38q-14 0 -21 1zM588 449v-3q0 -35 -28.5 -51t-57.5 -16q-39 0 -61.5 25t-22.5 62q0 42 23 70.5t59 28.5q46 0 67 -35t21 -81z" />
    <glyph glyph-name="Japan1.8295" 
d="M494 -8h-79l-81 175q-71 153 -78 170h-1q-12 -31 -70 -169l-75 -176h-78l186 398l-171 381h78l85 -196q11 -25 53 -129h1q43 108 51 128l83 197h79l-176 -377zM542 771h65v-779h-65v779zM700 771h65v-779h-65v779zM859 771h66v-779h-66v779z" />
    <glyph glyph-name="Japan1.8296" 
d="M442 -8h-75l-69 172q-56 134 -67 168h-1q-23 -67 -60 -166l-64 -174h-74l162 398l-149 381h72l73 -193q32 -81 47 -127h1q19 62 44 126l71 194h74l-154 -376zM462 771h65v-779h-65v779zM804 -8h-72l-180 779h74l89 -407q25 -116 54 -267h2q12 82 47 267l78 407h72z" />
    <glyph glyph-name="Japan1.8297" 
d="M493 -8h-85l-77 173q-46 99 -74 168h-1q-14 -37 -68 -167l-72 -174h-82l181 398l-167 381h83l81 -194q16 -36 51 -127h2q13 40 48 126l79 195h84l-173 -377zM779 -8h-81l-205 779h80l102 -406q31 -124 65 -272h1q27 139 58 271l89 407h78z" />
    <glyph glyph-name="Japan1.8298" 
d="M772 660q-26 0 -41 17.5t-15 40.5q0 24 16.5 41.5t41.5 17.5q24 0 39.5 -17.5t15.5 -41.5t-16 -41t-41 -17zM161 553h87l88 -129q21 -32 61 -95h4q19 32 61 98l85 126h83l-188 -269l202 -292h-88l-92 134q-38 57 -70 108h-3q-40 -63 -69 -105l-96 -137h-85l208 290z
M812 -8h-79v561h79v-561z" />
    <glyph glyph-name="Japan1.8299" 
d="M661 664q-27 0 -41.5 17t-14.5 39q0 24 15 40.5t39 16.5q23 0 39 -17t16 -40q0 -22 -15 -39t-38 -17zM849 664q-26 0 -41 17t-15 39q0 24 15.5 40.5t38.5 16.5q24 0 39.5 -16.5t15.5 -40.5q0 -22 -15 -39t-38 -17zM104 553h88l83 -129q41 -67 58 -95h2q47 79 59 98
l80 126h84l-180 -268l193 -293h-89l-87 134q-46 74 -66 108h-3q-40 -66 -66 -105l-90 -137h-85l199 290zM697 -8h-75v561h75v-561zM886 -8h-76v561h76v-561z" />
    <glyph glyph-name="Japan1.8300" 
d="M577 667q-23 0 -37 16.5t-14 38.5q0 23 14 39t35 16t35.5 -16.5t14.5 -38.5t-13.5 -38.5t-34.5 -16.5zM726 667q-23 0 -36.5 16.5t-13.5 38.5q0 23 14 39t34 16q21 0 35.5 -16.5t14.5 -38.5t-13.5 -38.5t-34.5 -16.5zM876 667q-23 0 -37 16.5t-14 38.5q0 23 14 39t35 16
t35.5 -16.5t14.5 -38.5t-13.5 -38.5t-34.5 -16.5zM76 553h82l77 -129q2 -3 53 -94h3q29 54 54 98l74 125h78l-166 -268l178 -293h-82l-81 133q-27 46 -62 108h-3q-39 -70 -60 -104l-84 -137h-79l185 290zM608 -8h-65v561h65v-561zM758 -8h-65v561h65v-561zM908 -8h-66v561
h66v-561z" />
    <glyph glyph-name="Japan1.8301" 
d="M502 667q-23 0 -37 16.5t-14 38.5q0 23 14 39t35 16t35.5 -16.5t14.5 -38.5t-13.5 -38.5t-34.5 -16.5zM48 553h78l65 -126q21 -41 44 -93h3q28 62 45 96l64 123h73l-144 -268l154 -293h-77l-69 130q-50 104 -52 107h-2q-22 -46 -51 -103l-72 -134h-75l161 290zM533 -8
h-65v561h65v-561zM573 553h70l85 -309q13 -48 39 -151h2q24 94 41 151l88 309h70l-171 -561h-59z" />
    <glyph glyph-name="Japan1.8302" 
d="M68 553h86l76 -129q32 -54 53 -94h2q29 54 54 98l73 125h82l-167 -268l179 -293h-87l-80 133q-42 74 -60 108h-3q-39 -70 -60 -104l-83 -137h-83l185 290zM507 553h81l94 -308q25 -77 45 -150h2q20 71 45 150l100 308h77l-194 -561h-64z" />
    <glyph glyph-name="Japan1.9780" 
d="M217 383q-83 0 -132.5 57t-49.5 155q0 100 51 157.5t134 57.5q86 0 134 -55t48 -154q0 -101 -47 -159.5t-138 -58.5zM216 437q60 0 87 45t27 117q0 157 -112 157q-50 0 -80.5 -42t-30.5 -115q0 -78 29.5 -120t79.5 -42zM803 810l-549 -860h-58l550 860h57zM610 -18l18 51
q62 -28 136 -28q70 0 99.5 21t29.5 49q0 74 -146 74h-51v52h52q49 0 87 16t38 47q0 24 -24.5 40.5t-77.5 16.5q-64 0 -121 -31l-20 50q62 37 153 37q78 0 119 -30t41 -73q0 -35 -26 -61t-76 -36v-2q55 -3 89.5 -30.5t34.5 -72.5q0 -55 -52.5 -88.5t-150.5 -33.5
q-94 0 -152 32z" />
    <glyph glyph-name="Japan1.9781" 
d="M216 384v364h-2l-98 -45l-15 51l123 54h59v-424h-67zM803 810l-549 -860h-58l550 860h57zM610 -18l18 51q62 -28 136 -28q70 0 99.5 21t29.5 49q0 74 -146 74h-51v52h52q49 0 87 16t38 47q0 24 -24.5 40.5t-77.5 16.5q-64 0 -121 -31l-20 50q62 37 153 37q78 0 119 -30
t41 -73q0 -35 -26 -61t-76 -36v-2q55 -3 89.5 -30.5t34.5 -72.5q0 -55 -52.5 -88.5t-150.5 -33.5q-94 0 -152 32z" />
    <glyph glyph-name="Japan1.9782" 
d="M380 391h-344v37l58 42q123 91 163.5 129.5t40.5 77.5q0 34 -22.5 55.5t-72.5 21.5q-67 0 -118 -47l-29 47q64 56 159 56q73 0 112.5 -36t39.5 -88t-39.5 -96t-139.5 -117l-34 -24v-1h226v-57zM803 810l-549 -860h-58l550 860h57zM610 -18l18 51q62 -28 136 -28
q70 0 99.5 21t29.5 49q0 74 -146 74h-51v52h52q49 0 87 16t38 47q0 24 -24.5 40.5t-77.5 16.5q-64 0 -121 -31l-20 50q62 37 153 37q78 0 119 -30t41 -73q0 -35 -26 -61t-76 -36v-2q55 -3 89.5 -30.5t34.5 -72.5q0 -55 -52.5 -88.5t-150.5 -33.5q-94 0 -152 32z" />
    <glyph glyph-name="Japan1.9783" 
d="M892 -49h-67v112h-245v46l226 265h86v-259h73v-52h-73v-112zM652 115h173v138q0 24 2 70h-2q-33 -41 -85 -103l-88 -102v-3zM35 416l18 51q62 -28 136 -28q70 0 99.5 20.5t29.5 47.5q0 73 -146 73h-51v52h52q49 0 87 16t38 48q0 26 -24.5 42.5t-77.5 16.5q-62 0 -122 -31
l-19 50q64 36 153 36q78 0 119 -30.5t41 -73.5q0 -35 -26 -61.5t-76 -36.5v-2q55 -3 89.5 -30t34.5 -71q0 -55 -53 -88t-150 -33q-94 0 -152 32zM803 810l-549 -860h-58l550 860h57z" />
    <glyph glyph-name="Japan1.9784" 
d="M216 384v364h-2l-98 -45l-15 51l123 54h59v-424h-67zM803 810l-549 -860h-58l550 860h57zM954 369v-57h-213l-18 -92q19 3 47 3q33 0 65 -6.5t62.5 -21t49 -41.5t18.5 -64q0 -65 -52 -102.5t-145 -37.5q-88 0 -140 28l19 52q50 -25 121 -25q53 0 89.5 22t36.5 60
q0 83 -155 83q-45 0 -83 -7l34 206h264z" />
    <glyph glyph-name="Japan1.9785" 
d="M380 391h-344v37l58 42q123 91 163.5 129.5t40.5 77.5q0 34 -22.5 55.5t-72.5 21.5q-67 0 -118 -47l-29 47q64 56 159 56q73 0 112.5 -36t39.5 -88t-39.5 -96t-139.5 -117l-34 -24v-1h226v-57zM803 810l-549 -860h-58l550 860h57zM954 369v-57h-213l-18 -92q19 3 47 3
q33 0 65 -6.5t62.5 -21t49 -41.5t18.5 -64q0 -65 -52 -102.5t-145 -37.5q-88 0 -140 28l19 52q50 -25 121 -25q53 0 89.5 22t36.5 60q0 83 -155 83q-45 0 -83 -7l34 206h264z" />
    <glyph glyph-name="Japan1.9786" 
d="M35 416l20 53q62 -28 134 -28q68 0 97 20t29 47q0 71 -143 71h-52v55h53q48 -1 85 14.5t37 46.5q0 25 -24 41.5t-76 16.5q-65 0 -118 -30l-22 51q60 36 153 36q78 0 119 -30.5t41 -73.5q0 -35 -26.5 -61.5t-75.5 -35.5v-3q55 -3 89.5 -30t34.5 -71q0 -55 -53 -88
t-150 -33q-94 0 -152 32zM803 810l-549 -860h-58l550 860h57zM954 369v-57h-213l-18 -92q19 3 47 3q33 0 65 -6.5t62.5 -21t49 -41.5t18.5 -64q0 -65 -52 -102.5t-145 -37.5q-88 0 -140 28l19 52q50 -25 121 -25q53 0 89.5 22t36.5 60q0 83 -155 83q-45 0 -83 -7l34 206h264
z" />
    <glyph glyph-name="Japan1.9787" 
d="M348 383h-68v112h-245v46l226 265h87v-258h72v-53h-72v-112zM107 548h173v138q0 36 3 70h-3q-33 -41 -85 -103l-88 -103v-2zM803 810l-549 -860h-58l550 860h57zM954 369v-57h-213l-18 -92q19 3 47 3q33 0 65 -6.5t62.5 -21t49 -41.5t18.5 -64q0 -65 -52 -102.5
t-145 -37.5q-88 0 -140 28l19 52q50 -25 121 -25q53 0 89.5 22t36.5 60q0 83 -155 83q-45 0 -83 -7l34 206h264z" />
    <glyph glyph-name="Japan1.9788" 
d="M909 376v-55q-66 0 -114.5 -14t-74 -36.5t-37.5 -43t-16 -42.5h2q46 48 131 48q72 0 118.5 -36.5t46.5 -100.5q0 -63 -50 -104.5t-131 -41.5q-85 0 -136 49t-51 130q0 32 8 63t29.5 65.5t55 60t90 42t129.5 16.5zM787 3q51 0 79.5 24.5t28.5 65.5q0 44 -31 66t-84 22
q-46 0 -80.5 -24t-34.5 -46q0 -46 31.5 -77t90.5 -31zM216 384v364h-2l-98 -45l-15 51l123 54h59v-424h-67zM803 810l-549 -860h-58l550 860h57z" />
    <glyph glyph-name="Japan1.9789" 
d="M909 376v-55q-66 0 -114.5 -14t-74 -36.5t-37.5 -43t-16 -42.5h2q46 48 131 48q72 0 118.5 -36.5t46.5 -100.5q0 -63 -50 -104.5t-131 -41.5q-85 0 -136 49t-51 130q0 32 8 63t29.5 65.5t55 60t90 42t129.5 16.5zM787 3q51 0 79.5 24.5t28.5 65.5q0 44 -31 66t-84 22
q-46 0 -80.5 -24t-34.5 -46q0 -46 31.5 -77t90.5 -31zM803 810l-549 -860h-58l550 860h57zM360 801v-57h-212l-18 -92q20 3 47 3q33 0 64.5 -6.5t62 -20.5t49.5 -41.5t19 -64.5q0 -65 -52 -102.5t-145 -37.5q-88 0 -140 28l19 51q48 -24 121 -24q50 0 87.5 21t37.5 63
q0 81 -154 81q-44 0 -83 -7l34 206h263z" />
    <glyph glyph-name="Japan1.9790" 
d="M216 384v364h-2l-98 -45l-15 51l123 54h59v-424h-67zM803 810l-549 -860h-58l550 860h57zM619 369h346v-44l-217 -374h-78l216 359v2h-267v57z" />
    <glyph glyph-name="Japan1.9791" 
d="M380 391h-344v37l58 42q123 91 163.5 129.5t40.5 77.5q0 34 -22.5 55.5t-72.5 21.5q-67 0 -118 -47l-29 47q64 56 159 56q73 0 112.5 -36t39.5 -88t-39.5 -96t-139.5 -117l-34 -24v-1h226v-57zM803 810l-549 -860h-58l550 860h57zM619 369h346v-44l-217 -374h-78l216 359
v2h-267v57z" />
    <glyph glyph-name="Japan1.9792" 
d="M35 416l18 51q62 -28 136 -28q70 0 99.5 20.5t29.5 47.5q0 73 -146 73h-51v52h52q49 0 87 16t38 48q0 26 -24.5 42.5t-77.5 16.5q-62 0 -122 -31l-19 50q64 36 153 36q78 0 119 -30.5t41 -73.5q0 -35 -26 -61.5t-76 -36.5v-2q55 -3 89.5 -30t34.5 -71q0 -55 -53 -88
t-150 -33q-94 0 -152 32zM803 810l-549 -860h-58l550 860h57zM619 369h346v-44l-217 -374h-78l216 359v2h-267v57z" />
    <glyph glyph-name="Japan1.9793" 
d="M348 383h-68v112h-245v46l226 265h87v-258h72v-53h-72v-112zM107 548h173v138q0 36 3 70h-3q-33 -41 -85 -103l-88 -103v-2zM803 810l-549 -860h-58l550 860h57zM619 369h346v-44l-217 -374h-78l216 359v2h-267v57z" />
    <glyph glyph-name="Japan1.9794" 
d="M803 810l-549 -860h-58l550 860h57zM360 801v-57h-212l-18 -92q20 3 47 3q33 0 64.5 -6.5t62 -20.5t49.5 -41.5t19 -64.5q0 -65 -52 -102.5t-145 -37.5q-88 0 -140 28l19 51q48 -24 121 -24q50 0 87.5 21t37.5 63q0 81 -154 81q-44 0 -83 -7l34 206h263zM619 369h346v-44
l-217 -374h-78l216 359v2h-267v57z" />
    <glyph glyph-name="Japan1.9795" 
d="M348 809v-55q-43 3 -91.5 -6.5t-95.5 -43t-55 -86.5h1q46 48 131 48q72 0 118.5 -36.5t46.5 -100.5q0 -63 -50 -104.5t-131 -41.5q-85 0 -136 49t-51 131q0 25 5.5 51.5t25 63.5t51.5 64.5t92 47t139 19.5zM225 436q51 0 79.5 25t28.5 66q0 43 -31 65.5t-83 22.5
q-47 0 -81.5 -25t-34.5 -46q0 -46 32 -77t90 -31zM803 810l-549 -860h-58l550 860h57zM619 369h346v-44l-217 -374h-78l216 359v2h-267v57z" />
    <glyph glyph-name="Japan1.9796" 
d="M695 171v1q-85 25 -85 93q0 49 48.5 80t122.5 31q80 0 121 -31t41 -71q0 -33 -20 -60t-67 -38v-1q52 -10 80.5 -38t28.5 -66q0 -54 -54 -87.5t-136 -33.5q-84 0 -134.5 33t-50.5 79q0 37 27 66t78 43zM777 1q55 0 86 17.5t31 44.5q0 66 -128 81q-50 -7 -77.5 -27
t-27.5 -48q0 -29 32 -48.5t84 -19.5zM779 325q-51 0 -77.5 -16.5t-26.5 -40.5q0 -53 113 -69q90 13 90 68q0 23 -24.5 40.5t-74.5 17.5zM803 810l-549 -860h-58l550 860h57zM216 384v364h-2l-98 -45l-15 51l123 54h59v-424h-67z" />
    <glyph glyph-name="Japan1.9797" 
d="M695 171v1q-85 25 -85 93q0 49 48.5 80t122.5 31q80 0 121 -31t41 -71q0 -33 -20 -60t-67 -38v-1q52 -10 80.5 -38t28.5 -66q0 -54 -54 -87.5t-136 -33.5q-84 0 -134.5 33t-50.5 79q0 37 27 66t78 43zM777 1q55 0 86 17.5t31 44.5q0 66 -128 81q-50 -7 -77.5 -27
t-27.5 -48q0 -29 32 -48.5t84 -19.5zM779 325q-51 0 -77.5 -16.5t-26.5 -40.5q0 -53 113 -69q90 13 90 68q0 23 -24.5 40.5t-74.5 17.5zM803 810l-549 -860h-58l550 860h57zM35 416l18 51q62 -28 136 -28q70 0 99.5 20.5t29.5 47.5q0 73 -146 73h-51v52h52q49 0 87 16t38 48
q0 26 -24.5 42.5t-77.5 16.5q-62 0 -122 -31l-19 50q64 36 153 36q78 0 119 -30.5t41 -73.5q0 -35 -26 -61.5t-76 -36.5v-2q55 -3 89.5 -30t34.5 -71q0 -55 -53 -88t-150 -33q-94 0 -152 32z" />
    <glyph glyph-name="Japan1.9798" 
d="M695 171v1q-85 25 -85 93q0 49 48.5 80t122.5 31q80 0 121 -31t41 -71q0 -33 -20 -60t-67 -38v-1q52 -10 80.5 -38t28.5 -66q0 -54 -54 -87.5t-136 -33.5q-84 0 -134.5 33t-50.5 79q0 37 27 66t78 43zM777 1q55 0 86 17.5t31 44.5q0 66 -128 81q-50 -7 -77.5 -27
t-27.5 -48q0 -29 32 -48.5t84 -19.5zM779 325q-51 0 -77.5 -16.5t-26.5 -40.5q0 -53 113 -69q90 13 90 68q0 23 -24.5 40.5t-74.5 17.5zM803 810l-549 -860h-58l550 860h57zM360 803v-57h-212l-18 -92q20 3 47 3q33 0 64.5 -6.5t62 -20.5t49.5 -41.5t19 -64.5
q0 -64 -52 -102t-145 -38q-88 0 -140 28l19 52q50 -25 121 -25q50 0 87.5 21t37.5 63q0 81 -154 81q-44 0 -83 -7l34 206h263z" />
    <glyph glyph-name="Japan1.9799" 
d="M695 171v1q-85 25 -85 93q0 49 48.5 80t122.5 31q80 0 121 -31t41 -71q0 -33 -20 -60t-67 -38v-1q52 -10 80.5 -38t28.5 -66q0 -54 -54 -87.5t-136 -33.5q-84 0 -134.5 33t-50.5 79q0 37 27 66t78 43zM777 1q55 0 86 17.5t31 44.5q0 66 -128 81q-50 -7 -77.5 -27
t-27.5 -48q0 -29 32 -48.5t84 -19.5zM779 325q-51 0 -77.5 -16.5t-26.5 -40.5q0 -53 113 -69q90 13 90 68q0 23 -24.5 40.5t-74.5 17.5zM803 810l-549 -860h-58l550 860h57zM35 803h346v-44l-216 -374h-79l216 359v2h-267v57z" />
    <glyph glyph-name="Japan1.9800" 
d="M652 -50v55q54 0 97 10t68.5 24.5t43 33.5t24.5 35.5t9 32.5h-1q-46 -48 -131 -48q-72 0 -118.5 36.5t-46.5 100.5q0 63 50 104.5t131 41.5q85 0 136 -49t51 -130q0 -28 -6.5 -57t-27 -64.5t-53 -62t-91 -45t-135.5 -18.5zM775 323q-51 0 -79.5 -25t-28.5 -66
q0 -43 31 -65t83 -22q48 0 82 24.5t34 45.5q0 46 -32 77t-90 31zM216 385v363h-2l-98 -44l-15 51l123 54h59v-424h-67zM803 810l-549 -860h-58l550 860h57z" />
    <glyph glyph-name="Japan1.9801" 
d="M652 -50v55q54 0 97 10t68.5 24.5t43 33.5t24.5 35.5t9 32.5h-1q-46 -48 -131 -48q-72 0 -118.5 36.5t-46.5 100.5q0 63 50 104.5t131 41.5q85 0 136 -49t51 -130q0 -28 -6.5 -57t-27 -64.5t-53 -62t-91 -45t-135.5 -18.5zM775 323q-51 0 -79.5 -25t-28.5 -66
q0 -43 31 -65t83 -22q48 0 82 24.5t34 45.5q0 46 -32 77t-90 31zM380 391h-344v37l58 42q123 91 163.5 129.5t40.5 77.5q0 34 -22.5 55.5t-72.5 21.5q-67 0 -118 -47l-29 47q64 56 159 56q73 0 112.5 -36t39.5 -88t-39.5 -96t-139.5 -117l-34 -24v-1h226v-57zM803 810
l-549 -860h-58l550 860h57z" />
    <glyph glyph-name="Japan1.9802" 
d="M348 383h-68v112h-245v46l226 265h87v-258h72v-53h-72v-112zM107 548h173v138q0 36 3 70h-3q-33 -41 -85 -103l-88 -103v-2zM652 -50v55q54 0 97 10t68.5 24.5t43 33.5t24.5 35.5t9 32.5h-1q-46 -48 -131 -48q-72 0 -118.5 36.5t-46.5 100.5q0 63 50 104.5t131 41.5
q85 0 136 -49t51 -130q0 -28 -6.5 -57t-27 -64.5t-53 -62t-91 -45t-135.5 -18.5zM775 323q-51 0 -79.5 -25t-28.5 -66q0 -43 31 -65t83 -22q48 0 82 24.5t34 45.5q0 46 -32 77t-90 31zM803 810l-549 -860h-58l550 860h57z" />
    <glyph glyph-name="Japan1.9803" 
d="M652 -50v55q54 0 97 10t68.5 24.5t43 33.5t24.5 35.5t9 32.5h-1q-46 -48 -131 -48q-72 0 -118.5 36.5t-46.5 100.5q0 63 50 104.5t131 41.5q85 0 136 -49t51 -130q0 -28 -6.5 -57t-27 -64.5t-53 -62t-91 -45t-135.5 -18.5zM775 323q-51 0 -79.5 -25t-28.5 -66
q0 -43 31 -65t83 -22q48 0 82 24.5t34 45.5q0 46 -32 77t-90 31zM803 810l-549 -860h-58l550 860h57zM360 801v-57h-212l-18 -92q20 3 47 3q33 0 64.5 -6.5t62 -20.5t49.5 -41.5t19 -64.5q0 -65 -52 -102.5t-145 -37.5q-88 0 -140 28l19 51q48 -24 121 -24q50 0 87.5 21
t37.5 63q0 81 -154 81q-44 0 -83 -7l34 206h263z" />
    <glyph glyph-name="Japan1.9804" 
d="M652 -50v55q54 0 97 10t68.5 24.5t43 33.5t24.5 35.5t9 32.5h-1q-46 -48 -131 -48q-72 0 -118.5 36.5t-46.5 100.5q0 63 50 104.5t131 41.5q85 0 136 -49t51 -130q0 -28 -6.5 -57t-27 -64.5t-53 -62t-91 -45t-135.5 -18.5zM775 323q-51 0 -79.5 -25t-28.5 -66
q0 -43 31 -65t83 -22q48 0 82 24.5t34 45.5q0 46 -32 77t-90 31zM803 810l-549 -860h-58l550 860h57zM35 803h346v-44l-216 -374h-79l216 359v2h-267v57z" />
    <glyph glyph-name="Japan1.9805" 
d="M302 610v-1q52 -10 80 -37.5t28 -66.5q0 -54 -53.5 -87.5t-135.5 -33.5q-85 0 -135.5 33t-50.5 79q0 37 27 66t79 43v1q-86 25 -86 93q0 49 48.5 80t123.5 31q78 0 120 -30.5t42 -71.5q0 -32 -20.5 -59.5t-66.5 -38.5zM225 760q-51 0 -77.5 -17t-26.5 -41q0 -53 113 -69
q90 13 90 68q0 23 -24.5 41t-74.5 18zM223 435q55 0 85.5 18t30.5 44q0 66 -127 81q-50 -7 -77.5 -27t-27.5 -48q0 -29 31.5 -48.5t84.5 -19.5zM894 141h-1q-46 -48 -131 -48q-72 0 -118.5 36.5t-46.5 100.5q0 63 50 104.5t131 41.5q85 0 136 -49t51 -130q0 -28 -6.5 -57
t-27 -64.5t-53 -62t-91 -45t-135.5 -18.5v55q54 0 97 10t68.5 24.5t43 33.5t24.5 35.5t9 32.5zM775 323q-51 0 -79.5 -25t-28.5 -66q0 -43 31 -65t83 -22q48 0 82 24.5t34 45.5q0 46 -32 77t-90 31zM803 810l-549 -860h-58l550 860h57z" />
    <glyph glyph-name="Japan1.9806" 
d="M816 -50q-41 0 -70.5 19.5t-45.5 52t-23 67t-7 72.5q0 103 40.5 159t108.5 56q70 0 108 -53.5t38 -154.5q0 -105 -37 -161.5t-112 -56.5zM816 2q87 0 87 163q0 159 -85 159q-39 0 -62.5 -41.5t-23.5 -117.5q1 -81 23 -122t61 -41zM732 810l-549 -860h-58l550 860h57z
M190 384v364h-2l-95 -45l-15 51l119 54h55v-424h-62zM550 -49v360h-2l-57 -28l-15 54l81 38h54v-424h-61z" />
    <glyph glyph-name="Japan1.9807" 
d="M816 -50q-41 0 -70.5 19.5t-45.5 52t-23 67t-7 72.5q0 103 40.5 159t108.5 56q70 0 108 -53.5t38 -154.5q0 -105 -37 -161.5t-112 -56.5zM816 2q87 0 87 163q0 159 -85 159q-39 0 -62.5 -41.5t-23.5 -117.5q1 -81 23 -122t61 -41zM243 608v-2q50 -3 80.5 -30t30.5 -71
q0 -55 -47 -88t-135 -33q-84 0 -137 32l19 50q49 -27 120 -27q61 0 87 20.5t26 47.5q0 73 -128 73h-46v52h46q43 0 76.5 16t33.5 48q0 26 -21.5 42.5t-67.5 16.5q-60 0 -107 -31l-20 50q57 36 138 36q70 0 106.5 -30.5t36.5 -73.5q0 -35 -23 -61.5t-68 -36.5zM732 810
l-549 -860h-58l550 860h57zM550 -49v360h-2l-57 -28l-15 54l81 38h54v-424h-61z" />
    <glyph glyph-name="Japan1.9808" 
d="M816 -50q-41 0 -70.5 19.5t-45.5 52t-23 67t-7 72.5q0 103 40.5 159t108.5 56q70 0 108 -53.5t38 -154.5q0 -105 -37 -161.5t-112 -56.5zM816 2q87 0 87 163q0 159 -85 159q-39 0 -62.5 -41.5t-23.5 -117.5q1 -81 23 -122t61 -41zM732 810l-549 -860h-58l550 860h57z
M35 803h314v-44l-195 -374h-73l194 359v2h-240v57zM550 -49v360h-2l-57 -28l-15 54l81 38h54v-424h-61z" />
    <glyph glyph-name="Japan1.9809" 
d="M300 575h-2q-41 -48 -116 -48q-64 0 -105.5 36.5t-41.5 100.5q0 63 45 104.5t118 41.5q77 0 122.5 -49t45.5 -130q0 -29 -6 -58.5t-24.5 -65t-48 -61.5t-82 -44t-120.5 -18v55q59 0 102.5 14t66 36.5t33 43t13.5 42.5zM195 757q-44 0 -69 -24.5t-25 -65.5q0 -44 27 -66
t74 -22q40 0 70.5 25t30.5 45q0 46 -28.5 77t-79.5 31zM816 -50q-41 0 -70.5 19.5t-45.5 52t-23 67t-7 72.5q0 103 40.5 159t108.5 56q70 0 108 -53.5t38 -154.5q0 -105 -37 -161.5t-112 -56.5zM816 2q87 0 87 163q0 159 -85 159q-39 0 -62.5 -41.5t-23.5 -117.5
q1 -81 23 -122t61 -41zM732 810l-549 -860h-58l550 860h57zM550 -49v360h-2l-57 -28l-15 54l81 38h54v-424h-61z" />
    <glyph glyph-name="Japan1.9810" 
d="M190 385v363h-2l-95 -44l-14 51l118 54h55v-424h-62zM732 810l-549 -860h-58l550 860h57zM577 -49v360h-2l-57 -28l-15 54l81 38h54v-424h-61zM869 -49v360h-2l-57 -28l-14 54l81 38h53v-424h-61z" />
    <glyph glyph-name="Japan1.9811" 
d="M343 391h-307v37l52 42q108 88 144.5 128t36.5 79q0 34 -20 55.5t-64 21.5q-60 0 -105 -47l-26 47q58 56 143 56q65 0 101 -36t36 -88q0 -51 -35 -94.5t-125 -118.5l-31 -24v-1h200v-57zM736 810l-550 -860h-58l550 860h58zM577 -49v360h-2l-57 -28l-15 54l81 38h54v-424
h-61zM869 -49v360h-2l-57 -28l-14 54l81 38h53v-424h-61z" />
    <glyph glyph-name="Japan1.9812" 
d="M35 416l19 50q49 -27 120 -27q61 0 87 20.5t26 47.5q0 73 -128 73h-46v52h46q43 0 76.5 16t33.5 48q0 26 -21.5 42.5t-67.5 16.5q-60 0 -107 -31l-20 50q57 36 138 36q70 0 106.5 -30.5t36.5 -73.5q0 -35 -23 -61.5t-68 -36.5v-2q50 -3 80.5 -30t30.5 -71q0 -55 -47 -88
t-135 -33q-84 0 -137 32zM732 810l-549 -860h-58l550 860h57zM577 -49v360h-2l-57 -28l-15 54l81 38h54v-424h-61zM869 -49v360h-2l-57 -28l-14 54l81 38h53v-424h-61z" />
    <glyph glyph-name="Japan1.9813" 
d="M316 385l-63 -1v112h-218v47l204 265h77v-259h65v-53h-65v-111zM102 549h151v138q0 21 2 65h-1q-25 -37 -73 -98l-79 -102v-3zM736 810l-550 -860h-58l550 860h58zM577 -49v360h-2l-57 -28l-15 54l81 38h54v-424h-61zM869 -49v360h-2l-57 -28l-14 54l81 38h53v-424h-61z
" />
    <glyph glyph-name="Japan1.9814" 
d="M732 810l-549 -860h-58l550 860h57zM328 803v-57h-192l-15 -92q15 3 42 3q42 0 79 -11t66.5 -42.5t29.5 -79.5q0 -64 -47 -102t-130 -38q-80 0 -126 28l17 52q45 -25 109 -25q47 0 79 22t32 60q0 83 -138 83q-39 0 -74 -7l31 206h237zM577 -49v360h-2l-57 -28l-15 54
l81 38h54v-424h-61zM869 -49v360h-2l-57 -28l-14 54l81 38h53v-424h-61z" />
    <glyph glyph-name="Japan1.9815" 
d="M316 810v-55q-58 0 -101.5 -13.5t-65.5 -36t-33 -43.5t-14 -43h2q41 48 116 48q64 0 105.5 -36.5t41.5 -100.5q0 -63 -45.5 -104.5t-118.5 -41.5q-76 0 -122 49t-46 130q0 117 79 184q70 63 202 63zM206 437q45 0 70 25t25 66q0 43 -27 65t-74 22q-40 0 -70.5 -23.5
t-30.5 -46.5q0 -46 28 -77t79 -31zM732 810l-549 -860h-58l550 860h57zM577 -49v360h-2l-57 -28l-15 54l81 38h54v-424h-61zM869 -49v360h-2l-57 -28l-14 54l81 38h53v-424h-61z" />
    <glyph glyph-name="Japan1.9816" 
d="M732 810l-549 -860h-58l550 860h57zM35 803h314v-44l-195 -374h-73l194 359v2h-240v57zM577 -49v360h-2l-57 -28l-15 54l81 38h54v-424h-61zM869 -49v360h-2l-57 -28l-14 54l81 38h53v-424h-61z" />
    <glyph glyph-name="Japan1.9817" 
d="M130 605v1q-77 25 -77 93q0 49 43.5 80t110.5 31q72 0 109.5 -31t37.5 -71q0 -77 -79 -98v-1q47 -11 72.5 -38t25.5 -66q0 -54 -48.5 -87.5t-121.5 -33.5q-76 0 -122 33t-46 79q0 37 24.5 66t70.5 43zM206 760q-46 0 -68.5 -17t-22.5 -41q0 -52 99 -69q36 6 57.5 23.5
t21.5 44.5q0 23 -21.5 41t-65.5 18zM204 435q48 0 75 18t27 44q0 66 -112 81q-44 -7 -68 -27t-24 -48q0 -29 27.5 -48.5t74.5 -19.5zM734 810l-550 -860h-58l550 860h58zM577 -49v360h-2l-57 -28l-15 54l81 38h54v-424h-61zM869 -49v360h-2l-57 -28l-14 54l81 38h53v-424
h-61z" />
    <glyph glyph-name="Japan1.9818" 
d="M85 384v55q59 0 102.5 14t66 36.5t33 43t13.5 42.5h-2q-41 -48 -116 -48q-64 0 -105.5 36.5t-41.5 100.5q0 63 45 104.5t118 41.5q77 0 122.5 -49t45.5 -130q0 -29 -6 -58.5t-24.5 -65t-48 -61.5t-82 -44t-120.5 -18zM195 757q-44 0 -69 -24.5t-25 -65.5q0 -44 27 -66
t74 -22q40 0 70.5 25t30.5 45q0 46 -28.5 77t-79.5 31zM732 810l-549 -860h-58l550 860h57zM577 -49v360h-2l-57 -28l-15 54l81 38h54v-424h-61zM869 -49v360h-2l-57 -28l-14 54l81 38h53v-424h-61z" />
    <glyph glyph-name="Japan1.9819" 
d="M342 384q-58 0 -92 54t-35 157q0 103 35.5 159t94.5 56q62 0 94.5 -53t32.5 -155q0 -218 -130 -218zM343 436q67 0 67 163q0 159 -66 159q-30 0 -48 -41.5t-18 -117.5q0 -163 65 -163zM803 810l-549 -860h-58l550 860h57zM107 385v360h-2l-57 -28l-14 54l81 38h53v-424
h-61zM629 -49v360h-2l-57 -28l-14 54l81 38h53v-424h-61zM876 -49v360h-2l-57 -28l-15 54l81 38h54v-424h-61z" />
    <glyph glyph-name="Japan1.9820" 
d="M190 384v364h-2l-95 -45l-15 51l119 54h55v-424h-62zM736 810l-550 -860h-58l550 860h58zM577 -49v360h-2l-57 -28l-15 54l81 38h54v-424h-61zM965 -49h-261v36l38 39q89 85 121 129t32 85q0 34 -16 56.5t-52 22.5q-43 0 -77 -46l-27 45q49 57 122 57q55 0 84.5 -37
t29.5 -89q0 -54 -29.5 -99.5t-104.5 -113.5l-27 -25v-1h167v-59z" />
    <glyph glyph-name="Japan1.9821" 
d="M736 810l-550 -860h-58l550 860h58zM328 803v-57h-192l-15 -92q15 3 42 3q42 0 79 -11t66.5 -42.5t29.5 -79.5q0 -64 -47 -102t-130 -38q-80 0 -126 28l17 52q45 -25 109 -25q47 0 79 22t32 60q0 83 -138 83q-39 0 -74 -7l31 206h237zM577 -49v360h-2l-57 -28l-15 54
l81 38h54v-424h-61zM965 -49h-261v36l38 39q89 85 121 129t32 85q0 34 -16 56.5t-52 22.5q-43 0 -77 -46l-27 45q49 57 122 57q55 0 84.5 -37t29.5 -89q0 -54 -29.5 -99.5t-104.5 -113.5l-27 -25v-1h167v-59z" />
    <glyph glyph-name="Japan1.9822" 
d="M736 810l-550 -860h-58l550 860h58zM35 803h314v-44l-195 -374h-73l194 359v2h-240v57zM577 -49v360h-2l-57 -28l-15 54l81 38h54v-424h-61zM965 -49h-261v36l38 39q89 85 121 129t32 85q0 34 -16 56.5t-52 22.5q-43 0 -77 -46l-27 45q49 57 122 57q55 0 84.5 -37
t29.5 -89q0 -54 -29.5 -99.5t-104.5 -113.5l-27 -25v-1h167v-59z" />
    <glyph glyph-name="Japan1.9823" 
d="M109 386v360h-2l-57 -28l-15 54l81 38h53v-424h-60zM781 810l-549 -860h-58l550 860h57zM349 386v360h-2l-57 -28l-14 54l81 38h53v-424h-61zM598 -49v360h-2l-57 -28l-14 54l81 38h53v-424h-61zM965 -49h-248v40l36 38q83 81 112.5 125.5t29.5 85.5q0 79 -65 79
q-38 0 -68 -39l-25 43q44 52 112 52q53 0 81.5 -36.5t28.5 -85.5q0 -55 -29 -102.5t-101 -114.5l-25 -25v-1h161v-59z" />
    <glyph glyph-name="Japan1.9824" 
d="M663 -50q-17 0 -30.5 7t-27.5 27t-22 65t-8 112q0 111 22 163t68 52t67 -50t21 -158q0 -112 -20.5 -165t-69.5 -53zM664 2q21 0 29.5 35.5t8.5 127.5q0 87 -7.5 123t-29.5 36q-21 0 -29.5 -37t-8.5 -122q0 -88 8.5 -125.5t28.5 -37.5zM876 -50q-18 0 -32 8t-27.5 29
t-21 65t-7.5 109q0 112 21.5 163.5t68.5 51.5q46 0 66.5 -49.5t20.5 -158.5q0 -113 -20 -165.5t-69 -52.5zM877 2q21 0 29.5 35.5t8.5 127.5q0 86 -8 122.5t-30 36.5q-38 0 -38 -159q1 -89 9 -126t29 -37zM658 810l-550 -860h-58l550 860h58zM150 386v363h-2l-77 -36l-15 51
l102 46h53v-424h-61zM481 -49v360h-2l-57 -28l-15 54l81 38h44v-424h-51z" />
    <glyph glyph-name="Japan1.9825" 
d="M498 462q-74 0 -120 50t-46 139q0 91 46.5 142.5t122.5 51.5q79 0 123 -49.5t44 -137.5q0 -91 -43.5 -143.5t-126.5 -52.5zM498 510h1q104 0 104 146q0 141 -103 141q-46 0 -75 -38t-29 -103q0 -70 28 -108t74 -38zM945 400v-40h-890v40h890zM548 117v-2
q51 -2 82.5 -26.5t31.5 -64.5q0 -50 -48 -79.5t-138 -29.5t-140 29l19 47q50 -25 123 -25q62 0 89 18t27 42q0 65 -131 65h-48v48h48q44 0 78.5 14.5t34.5 42.5q0 52 -92 52q-60 0 -111 -28l-19 46q58 32 141 32q72 0 109.5 -27t37.5 -66q0 -32 -24 -55.5t-70 -32.5z" />
    <glyph glyph-name="Japan1.9826" 
d="M481 463v328h-2l-90 -38l-14 44l113 47h56v-381h-63zM945 400v-40h-890v40h890zM658 -79h-317v32l54 39q129 97 154 123q32 33 32 63q0 69 -88 69q-58 0 -106 -42l-27 43q56 50 146 50q67 0 103.5 -32.5t36.5 -78.5q0 -47 -33.5 -83.5t-128.5 -108.5l-29 -20v-2h203v-52z
" />
    <glyph glyph-name="Japan1.9827" 
d="M481 463v328h-2l-90 -38l-14 44l113 47h56v-381h-63zM945 400v-40h-890v40h890zM336 -56l19 47q50 -25 123 -25q62 0 89 18t27 42q0 65 -131 65h-48v48h48q44 0 78.5 14.5t34.5 42.5q0 52 -92 52q-60 0 -111 -28l-19 46q58 32 141 32q72 0 109.5 -27t37.5 -66
q0 -32 -24 -55.5t-70 -32.5v-2q51 -2 82.5 -26.5t31.5 -64.5q0 -50 -48 -79.5t-138 -29.5t-140 29z" />
    <glyph glyph-name="Japan1.9828" 
d="M658 467h-317v33l54 38q130 98 156 126q30 32 30 61q0 68 -88 68q-60 0 -106 -42l-27 43q56 51 146 51q67 0 103.5 -33t36.5 -78q0 -47 -34 -84.5t-128 -107.5l-29 -21v-1h203v-53zM945 400v-40h-890v40h890zM336 -56l19 47q50 -25 123 -25q62 0 89 18t27 42
q0 65 -131 65h-48v48h48q44 0 78.5 14.5t34.5 42.5q0 52 -92 52q-60 0 -111 -28l-19 46q58 32 141 32q72 0 109.5 -27t37.5 -66q0 -32 -24 -55.5t-70 -32.5v-2q51 -2 82.5 -26.5t31.5 -64.5q0 -50 -48 -79.5t-138 -29.5t-140 29z" />
    <glyph glyph-name="Japan1.9829" 
d="M608 -84h-64v97h-225v42l208 235h81v-228h67v-49h-67v-97zM390 62h154v112q0 39 3 69h-2q-12 -14 -41 -48.5t-35 -41.5l-79 -89v-2zM481 463v328h-2l-90 -38l-14 44l113 47h56v-381h-63zM945 400v-40h-890v40h890z" />
    <glyph glyph-name="Japan1.9830" 
d="M608 -84h-64v97h-225v42l208 235h81v-228h67v-49h-67v-97zM390 62h154v112q0 39 3 69h-2q-12 -14 -41 -48.5t-35 -41.5l-79 -89v-2zM341 491l18 46q53 -25 124 -25q62 0 89 18t27 43q0 64 -131 64h-48v48h48q44 0 78.5 14.5t34.5 43.5q0 51 -92 51q-64 0 -111 -27l-20 45
q58 33 142 33q71 0 108.5 -27.5t37.5 -66.5q0 -32 -23.5 -55.5t-69.5 -32.5v-2q51 -2 82.5 -26.5t31.5 -64.5q0 -49 -48.5 -78.5t-138.5 -29.5q-93 0 -139 29zM945 400v-40h-890v40h890z" />
    <glyph glyph-name="Japan1.9831" 
d="M481 463v328h-2l-90 -38l-14 44l113 47h56v-381h-63zM945 400v-40h-890v40h890zM643 291v-52h-195l-17 -81q18 3 44 3q45 0 83 -10t67 -38.5t29 -71.5q0 -58 -48 -92t-133 -34q-82 0 -128 26l17 46q47 -21 111 -21q49 0 81.5 19t32.5 54q0 74 -141 74q-26 0 -77 -7
l33 185h241z" />
    <glyph glyph-name="Japan1.9832" 
d="M658 467h-317v33l54 38q130 98 156 126q30 32 30 61q0 68 -88 68q-60 0 -106 -42l-27 43q56 51 146 51q67 0 103.5 -33t36.5 -78q0 -47 -34 -84.5t-128 -107.5l-29 -21v-1h203v-53zM945 400v-40h-890v40h890zM643 291v-52h-195l-17 -81q18 3 44 3q45 0 83 -10t67 -38.5
t29 -71.5q0 -58 -48 -92t-133 -34q-82 0 -128 26l17 46q47 -21 111 -21q49 0 81.5 19t32.5 54q0 74 -141 74q-26 0 -77 -7l33 185h241z" />
    <glyph glyph-name="Japan1.9833" 
d="M341 491l18 46q53 -25 124 -25q62 0 89 18t27 43q0 64 -131 64h-48v48h48q44 0 78.5 14.5t34.5 43.5q0 51 -92 51q-64 0 -111 -27l-20 45q58 33 142 33q71 0 108.5 -27.5t37.5 -66.5q0 -32 -23.5 -55.5t-69.5 -32.5v-2q51 -2 82.5 -26.5t31.5 -64.5q0 -49 -48.5 -78.5
t-138.5 -29.5q-93 0 -139 29zM945 400v-40h-890v40h890zM643 291v-52h-195l-17 -81q18 3 44 3q45 0 83 -10t67 -38.5t29 -71.5q0 -58 -48 -92t-133 -34q-82 0 -128 26l17 46q47 -21 111 -21q49 0 81.5 19t32.5 54q0 74 -141 74q-26 0 -77 -7l33 185h241z" />
    <glyph glyph-name="Japan1.9834" 
d="M608 463h-64v97h-225v42l208 234h81v-227h67v-49h-67v-97zM390 609h154v112q0 38 3 68h-2q-11 -14 -40 -47t-36 -42l-79 -89v-2zM945 400v-40h-890v40h890zM643 291v-52h-195l-17 -81q18 3 44 3q45 0 83 -10t67 -38.5t29 -71.5q0 -58 -48 -92t-133 -34q-82 0 -128 26
l17 46q47 -21 111 -21q49 0 81.5 19t32.5 54q0 74 -141 74q-26 0 -77 -7l33 185h241z" />
    <glyph glyph-name="Japan1.9835" 
d="M618 298v-50q-111 0 -162 -37.5t-58 -83.5h1q45 43 118 43q66 0 109 -33t43 -91q0 -56 -46 -93.5t-120 -37.5q-79 0 -125.5 43.5t-46.5 117.5q0 27 6.5 54t25.5 58.5t49.5 55t83.5 39t122 15.5zM505 -36q46 0 72 22t26 58q0 39 -28 59t-76 20q-42 0 -73.5 -22t-31.5 -42
q0 -40 29 -67.5t82 -27.5zM945 400v-40h-890v40h890zM481 463v328h-2l-90 -38l-14 44l113 47h56v-381h-63z" />
    <glyph glyph-name="Japan1.9836" 
d="M618 298v-50q-111 0 -162 -37.5t-58 -83.5h1q45 43 118 43q66 0 109 -33t43 -91q0 -56 -46 -93.5t-120 -37.5q-79 0 -125.5 43.5t-46.5 117.5q0 27 6.5 54t25.5 58.5t49.5 55t83.5 39t122 15.5zM505 -36q46 0 72 22t26 58q0 39 -28 59t-76 20q-42 0 -73.5 -22t-31.5 -42
q0 -40 29 -67.5t82 -27.5zM945 400v-40h-890v40h890zM643 838v-52h-195l-17 -81q36 3 44 3q73 0 126 -29.5t53 -91.5q0 -58 -47.5 -91.5t-133.5 -33.5q-84 0 -128 25l17 47q42 -21 111 -21q49 0 81.5 19t32.5 53q0 74 -141 74q-38 0 -77 -7l33 186h241z" />
    <glyph glyph-name="Japan1.9837" 
d="M481 463v328h-2l-90 -38l-14 44l113 47h56v-381h-63zM945 400v-40h-890v40h890zM341 290h318v-39l-197 -336h-74l196 322v1h-243v52z" />
    <glyph glyph-name="Japan1.9838" 
d="M658 467h-317v33l54 38q130 98 156 126q30 32 30 61q0 68 -88 68q-60 0 -106 -42l-27 43q56 51 146 51q67 0 103.5 -33t36.5 -78q0 -47 -34 -84.5t-128 -107.5l-29 -21v-1h203v-53zM945 400v-40h-890v40h890zM341 290h318v-39l-197 -336h-74l196 322v1h-243v52z" />
    <glyph glyph-name="Japan1.9839" 
d="M341 491l18 46q53 -25 124 -25q62 0 89 18t27 43q0 64 -131 64h-48v48h48q44 0 78.5 14.5t34.5 43.5q0 51 -92 51q-64 0 -111 -27l-20 45q58 33 142 33q71 0 108.5 -27.5t37.5 -66.5q0 -32 -23.5 -55.5t-69.5 -32.5v-2q51 -2 82.5 -26.5t31.5 -64.5q0 -49 -48.5 -78.5
t-138.5 -29.5q-93 0 -139 29zM945 400v-40h-890v40h890zM341 290h318v-39l-197 -336h-74l196 322v1h-243v52z" />
    <glyph glyph-name="Japan1.9840" 
d="M608 463h-64v97h-225v42l208 234h81v-227h67v-49h-67v-97zM390 609h154v112q0 38 3 68h-2q-11 -14 -40 -47t-36 -42l-79 -89v-2zM945 400v-40h-890v40h890zM341 290h318v-39l-197 -336h-74l196 322v1h-243v52z" />
    <glyph glyph-name="Japan1.9841" 
d="M643 838v-52h-195l-17 -81q36 3 44 3q73 0 126 -29.5t53 -91.5q0 -58 -47.5 -91.5t-133.5 -33.5q-84 0 -128 25l17 47q42 -21 111 -21q49 0 81.5 19t32.5 53q0 74 -141 74q-38 0 -77 -7l33 186h241zM945 400v-40h-890v40h890zM341 290h318v-39l-197 -336h-74l196 322v1
h-243v52z" />
    <glyph glyph-name="Japan1.9842" 
d="M618 844v-50h-22q-66 0 -127 -30.5t-71 -90.5h1q46 44 118 44q66 0 109 -33t43 -91q0 -56 -46 -93.5t-120 -37.5q-79 0 -125.5 43.5t-46.5 116.5q0 22 4 44t19 53t39.5 55t71 44t108.5 25q33 2 45 1zM505 511q46 0 72 22t26 58q0 39 -28 58.5t-76 19.5q-43 0 -74 -21.5
t-31 -41.5q0 -41 29 -68t82 -27zM945 400v-40h-890v40h890zM341 290h318v-39l-197 -336h-74l196 322v1h-243v52z" />
    <glyph glyph-name="Japan1.9843" 
d="M425 114v1q-79 22 -79 84q0 44 44.5 71.5t113.5 27.5q74 0 111.5 -27.5t37.5 -64.5q0 -28 -19 -52.5t-61 -34.5v-2q47 -9 73.5 -33.5t26.5 -59.5q0 -49 -49.5 -79t-125.5 -30q-77 0 -124 30t-47 71q0 34 25.5 59.5t72.5 38.5zM502 251q-48 0 -71 -14.5t-23 -35.5
q0 -46 102 -61q38 5 60 20.5t22 39.5q0 21 -22 36t-68 15zM500 -37q50 0 78 15.5t28 38.5q0 58 -116 72q-45 -5 -70 -23.5t-25 -43.5t28.5 -42t76.5 -17zM481 463v328h-2l-90 -38l-14 44l113 47h56v-381h-63zM945 400v-40h-890v40h890z" />
    <glyph glyph-name="Japan1.9844" 
d="M425 114v1q-79 22 -79 84q0 44 44.5 71.5t113.5 27.5q74 0 111.5 -27.5t37.5 -64.5q0 -28 -19 -52.5t-61 -34.5v-2q47 -9 73.5 -33.5t26.5 -59.5q0 -49 -49.5 -79t-125.5 -30q-77 0 -124 30t-47 71q0 34 25.5 59.5t72.5 38.5zM502 251q-48 0 -71 -14.5t-23 -35.5
q0 -46 102 -61q38 5 60 20.5t22 39.5q0 21 -22 36t-68 15zM500 -37q50 0 78 15.5t28 38.5q0 58 -116 72q-45 -5 -70 -23.5t-25 -43.5t28.5 -42t76.5 -17zM341 491l18 46q53 -25 124 -25q62 0 89 18t27 43q0 64 -131 64h-48v48h48q44 0 78.5 14.5t34.5 43.5q0 51 -92 51
q-64 0 -111 -27l-20 45q58 33 142 33q71 0 108.5 -27.5t37.5 -66.5q0 -32 -23.5 -55.5t-69.5 -32.5v-2q51 -2 82.5 -26.5t31.5 -64.5q0 -49 -48.5 -78.5t-138.5 -29.5q-93 0 -139 29zM945 400v-40h-890v40h890z" />
    <glyph glyph-name="Japan1.9845" 
d="M425 114v1q-79 22 -79 84q0 44 44.5 71.5t113.5 27.5q74 0 111.5 -27.5t37.5 -64.5q0 -28 -19 -52.5t-61 -34.5v-2q47 -9 73.5 -33.5t26.5 -59.5q0 -49 -49.5 -79t-125.5 -30q-77 0 -124 30t-47 71q0 34 25.5 59.5t72.5 38.5zM502 251q-48 0 -71 -14.5t-23 -35.5
q0 -46 102 -61q38 5 60 20.5t22 39.5q0 21 -22 36t-68 15zM500 -37q50 0 78 15.5t28 38.5q0 58 -116 72q-45 -5 -70 -23.5t-25 -43.5t28.5 -42t76.5 -17zM643 838v-52h-195l-17 -81q36 3 44 3q73 0 126 -29.5t53 -91.5q0 -58 -47.5 -91.5t-133.5 -33.5q-84 0 -128 25l17 47
q42 -21 111 -21q49 0 81.5 19t32.5 53q0 74 -141 74q-38 0 -77 -7l33 186h241zM945 400v-40h-890v40h890z" />
    <glyph glyph-name="Japan1.9846" 
d="M425 114v1q-79 22 -79 84q0 44 44.5 71.5t113.5 27.5q74 0 111.5 -27.5t37.5 -64.5q0 -28 -19 -52.5t-61 -34.5v-2q47 -9 73.5 -33.5t26.5 -59.5q0 -49 -49.5 -79t-125.5 -30q-77 0 -124 30t-47 71q0 34 25.5 59.5t72.5 38.5zM502 251q-48 0 -71 -14.5t-23 -35.5
q0 -46 102 -61q38 5 60 20.5t22 39.5q0 21 -22 36t-68 15zM500 -37q50 0 78 15.5t28 38.5q0 58 -116 72q-45 -5 -70 -23.5t-25 -43.5t28.5 -42t76.5 -17zM341 838h318v-39l-197 -336h-74l196 321v2h-243v52zM945 400v-40h-890v40h890z" />
    <glyph glyph-name="Japan1.9847" 
d="M382 -84v50h22q67 0 127.5 30.5t70.5 90.5h-1q-46 -44 -118 -44q-66 0 -109 33t-43 91q0 57 46 94t120 37q79 0 125.5 -43.5t46.5 -116.5q0 -34 -10.5 -66.5t-35.5 -67t-75.5 -58t-120.5 -29.5q-33 -2 -45 -1zM495 249q-46 0 -72.5 -22t-26.5 -58q0 -39 28.5 -58.5
t76.5 -19.5q40 0 72 20.5t32 42.5q0 41 -28.5 68t-81.5 27zM481 463v328h-2l-90 -38l-14 44l113 47h56v-381h-63zM945 400v-40h-890v40h890z" />
    <glyph glyph-name="Japan1.9848" 
d="M382 -84v50h22q67 0 127.5 30.5t70.5 90.5h-1q-46 -44 -118 -44q-66 0 -109 33t-43 91q0 57 46 94t120 37q79 0 125.5 -43.5t46.5 -116.5q0 -34 -10.5 -66.5t-35.5 -67t-75.5 -58t-120.5 -29.5q-33 -2 -45 -1zM495 249q-46 0 -72.5 -22t-26.5 -58q0 -39 28.5 -58.5
t76.5 -19.5q40 0 72 20.5t32 42.5q0 41 -28.5 68t-81.5 27zM658 467h-317v33l54 38q130 98 156 126q30 32 30 61q0 68 -88 68q-60 0 -106 -42l-27 43q56 51 146 51q67 0 103.5 -33t36.5 -78q0 -47 -34 -84.5t-128 -107.5l-29 -21v-1h203v-53zM945 400v-40h-890v40h890z" />
    <glyph glyph-name="Japan1.9849" 
d="M608 463h-64v97h-225v42l208 234h81v-227h67v-49h-67v-97zM390 609h154v112q0 38 3 68h-2q-11 -14 -40 -47t-36 -42l-79 -89v-2zM382 -84v50h22q67 0 127.5 30.5t70.5 90.5h-1q-46 -44 -118 -44q-66 0 -109 33t-43 91q0 57 46 94t120 37q79 0 125.5 -43.5t46.5 -116.5
q0 -34 -10.5 -66.5t-35.5 -67t-75.5 -58t-120.5 -29.5q-33 -2 -45 -1zM495 249q-46 0 -72.5 -22t-26.5 -58q0 -39 28.5 -58.5t76.5 -19.5q40 0 72 20.5t32 42.5q0 41 -28.5 68t-81.5 27zM945 400v-40h-890v40h890z" />
    <glyph glyph-name="Japan1.9850" 
d="M382 -84v50h22q67 0 127.5 30.5t70.5 90.5h-1q-46 -44 -118 -44q-66 0 -109 33t-43 91q0 57 46 94t120 37q79 0 125.5 -43.5t46.5 -116.5q0 -34 -10.5 -66.5t-35.5 -67t-75.5 -58t-120.5 -29.5q-33 -2 -45 -1zM495 249q-46 0 -72.5 -22t-26.5 -58q0 -39 28.5 -58.5
t76.5 -19.5q40 0 72 20.5t32 42.5q0 41 -28.5 68t-81.5 27zM643 838v-52h-195l-17 -81q36 3 44 3q73 0 126 -29.5t53 -91.5q0 -58 -47.5 -91.5t-133.5 -33.5q-84 0 -128 25l17 47q42 -21 111 -21q49 0 81.5 19t32.5 53q0 74 -141 74q-38 0 -77 -7l33 186h241zM945 400v-40
h-890v40h890z" />
    <glyph glyph-name="Japan1.9851" 
d="M382 -84v50h22q67 0 127.5 30.5t70.5 90.5h-1q-46 -44 -118 -44q-66 0 -109 33t-43 91q0 57 46 94t120 37q79 0 125.5 -43.5t46.5 -116.5q0 -34 -10.5 -66.5t-35.5 -67t-75.5 -58t-120.5 -29.5q-33 -2 -45 -1zM495 249q-46 0 -72.5 -22t-26.5 -58q0 -39 28.5 -58.5
t76.5 -19.5q40 0 72 20.5t32 42.5q0 41 -28.5 68t-81.5 27zM341 838h318v-39l-197 -336h-74l196 321v2h-243v52zM945 400v-40h-890v40h890z" />
    <glyph glyph-name="Japan1.9852" 
d="M425 661v1q-79 21 -79 83q0 45 44.5 72.5t113.5 27.5q74 0 111.5 -27.5t37.5 -64.5q0 -28 -19 -52.5t-61 -34.5v-2q47 -9 73.5 -33.5t26.5 -59.5q0 -49 -49.5 -79t-125.5 -30q-77 0 -124 29.5t-47 71.5q0 33 25.5 59t72.5 39zM502 798q-47 0 -70.5 -15t-23.5 -35
q0 -46 102 -61q82 11 82 59q0 21 -22 36.5t-68 15.5zM500 509q50 0 78 15.5t28 38.5q0 58 -116 73q-45 -6 -70 -24.5t-25 -43.5t28.5 -42t76.5 -17zM382 -84v50h22q67 0 127.5 30.5t70.5 90.5h-1q-46 -44 -118 -44q-66 0 -109 33t-43 91q0 57 46 94t120 37q79 0 125.5 -43.5
t46.5 -116.5q0 -34 -10.5 -66.5t-35.5 -67t-75.5 -58t-120.5 -29.5q-33 -2 -45 -1zM495 249q-46 0 -72.5 -22t-26.5 -58q0 -39 28.5 -58.5t76.5 -19.5q40 0 72 20.5t32 42.5q0 41 -28.5 68t-81.5 27zM945 400v-40h-890v40h890z" />
    <glyph glyph-name="Japan1.9853" 
d="M945 400v-40h-890v40h890zM310 -84v329h-2l-90 -39l-14 44l113 47h56v-381h-63zM601 -85q-76 0 -121.5 51t-45.5 139q0 90 47 141.5t123 51.5q79 0 123 -49t44 -138q0 -91 -43.5 -143.5t-126.5 -52.5zM601 -37q105 0 105 146q0 141 -103 141q-47 0 -75.5 -37.5
t-28.5 -103.5q0 -70 28 -108t74 -38zM481 463v328h-2l-90 -38l-14 44l113 47h56v-381h-63z" />
    <glyph glyph-name="Japan1.9854" 
d="M945 400v-40h-890v40h890zM310 -84v329h-2l-90 -39l-14 44l113 47h56v-381h-63zM601 -85q-76 0 -121.5 51t-45.5 139q0 90 47 141.5t123 51.5q79 0 123 -49t44 -138q0 -91 -43.5 -143.5t-126.5 -52.5zM601 -37q105 0 105 146q0 141 -103 141q-47 0 -75.5 -37.5
t-28.5 -103.5q0 -70 28 -108t74 -38zM341 491l18 46q53 -25 124 -25q62 0 89 18t27 43q0 64 -131 64h-48v48h48q44 0 78.5 14.5t34.5 43.5q0 51 -92 51q-64 0 -111 -27l-20 45q58 33 142 33q71 0 108.5 -27.5t37.5 -66.5q0 -32 -23.5 -55.5t-69.5 -32.5v-2q51 -2 82.5 -26.5
t31.5 -64.5q0 -49 -48.5 -78.5t-138.5 -29.5q-93 0 -139 29z" />
    <glyph glyph-name="Japan1.9855" 
d="M945 400v-40h-890v40h890zM310 -84v329h-2l-90 -39l-14 44l113 47h56v-381h-63zM601 -85q-76 0 -121.5 51t-45.5 139q0 90 47 141.5t123 51.5q79 0 123 -49t44 -138q0 -91 -43.5 -143.5t-126.5 -52.5zM601 -37q105 0 105 146q0 141 -103 141q-47 0 -75.5 -37.5
t-28.5 -103.5q0 -70 28 -108t74 -38zM341 838h318v-39l-197 -336h-74l196 321v2h-243v52z" />
    <glyph glyph-name="Japan1.9856" 
d="M382 462v50q111 0 162 37.5t58 83.5h-1q-45 -43 -118 -43q-66 0 -109 33t-43 91q0 56 46 93.5t120 37.5q79 0 125.5 -43.5t46.5 -117.5q0 -38 -13.5 -74t-43.5 -70.5t-89.5 -56t-140.5 -21.5zM495 796q-46 0 -72.5 -22t-26.5 -58q0 -39 28.5 -59t76.5 -20q39 0 71.5 21
t32.5 43q0 40 -28.5 67.5t-81.5 27.5zM945 400v-40h-890v40h890zM310 -84v329h-2l-90 -39l-14 44l113 47h56v-381h-63zM601 -85q-76 0 -121.5 51t-45.5 139q0 90 47 141.5t123 51.5q79 0 123 -49t44 -138q0 -91 -43.5 -143.5t-126.5 -52.5zM602 -37q52 0 78 38t26 108
q0 141 -103 141q-47 0 -75.5 -37.5t-28.5 -103.5q0 -68 27 -107t76 -39z" />
    <glyph glyph-name="Japan1.9857" 
d="M481 463v328h-2l-90 -38l-14 44l113 47h56v-381h-63zM945 400v-40h-890v40h890zM317 -84v329h-2l-90 -39l-14 44l113 47h55v-381h-62zM670 -84v329h-2l-90 -39l-14 44l113 47h55v-381h-62z" />
    <glyph glyph-name="Japan1.9858" 
d="M658 467h-317v33l54 38q130 98 156 126q30 32 30 61q0 68 -88 68q-60 0 -106 -42l-27 43q56 51 146 51q67 0 103.5 -33t36.5 -78q0 -47 -34 -84.5t-128 -107.5l-29 -21v-1h203v-53zM945 400v-40h-890v40h890zM317 -84v329h-2l-90 -39l-14 44l113 47h55v-381h-62zM670 -84
v329h-2l-90 -39l-14 44l113 47h55v-381h-62z" />
    <glyph glyph-name="Japan1.9859" 
d="M341 491l18 46q53 -25 124 -25q62 0 89 18t27 43q0 64 -131 64h-48v48h48q44 0 78.5 14.5t34.5 43.5q0 51 -92 51q-64 0 -111 -27l-20 45q58 33 142 33q71 0 108.5 -27.5t37.5 -66.5q0 -32 -23.5 -55.5t-69.5 -32.5v-2q51 -2 82.5 -26.5t31.5 -64.5q0 -49 -48.5 -78.5
t-138.5 -29.5q-93 0 -139 29zM945 400v-40h-890v40h890zM317 -84v329h-2l-90 -39l-14 44l113 47h55v-381h-62zM670 -84v329h-2l-90 -39l-14 44l113 47h55v-381h-62z" />
    <glyph glyph-name="Japan1.9860" 
d="M608 463h-64v97h-225v42l208 234h81v-227h67v-49h-67v-97zM390 609h154v112q0 38 3 68h-2q-11 -14 -40 -47t-36 -42l-79 -89v-2zM945 400v-40h-890v40h890zM317 -84v329h-2l-90 -39l-14 44l113 47h55v-381h-62zM670 -84v329h-2l-90 -39l-14 44l113 47h55v-381h-62z" />
    <glyph glyph-name="Japan1.9861" 
d="M643 838v-52h-195l-17 -81q36 3 44 3q73 0 126 -29.5t53 -91.5q0 -58 -47.5 -91.5t-133.5 -33.5q-84 0 -128 25l17 47q42 -21 111 -21q49 0 81.5 19t32.5 53q0 74 -141 74q-38 0 -77 -7l33 186h241zM945 400v-40h-890v40h890zM317 -84v329h-2l-90 -39l-14 44l113 47h55
v-381h-62zM670 -84v329h-2l-90 -39l-14 44l113 47h55v-381h-62z" />
    <glyph glyph-name="Japan1.9862" 
d="M618 844v-50h-22q-66 0 -127 -30.5t-71 -90.5h1q46 44 118 44q66 0 109 -33t43 -91q0 -56 -46 -93.5t-120 -37.5q-79 0 -125.5 43.5t-46.5 116.5q0 22 4 44t19 53t39.5 55t71 44t108.5 25q33 2 45 1zM505 511q46 0 72 22t26 58q0 39 -28 58.5t-76 19.5q-43 0 -74 -21.5
t-31 -41.5q0 -41 29 -68t82 -27zM945 400v-40h-890v40h890zM317 -84v329h-2l-90 -39l-14 44l113 47h55v-381h-62zM670 -84v329h-2l-90 -39l-14 44l113 47h55v-381h-62z" />
    <glyph glyph-name="Japan1.9863" 
d="M341 838h318v-39l-197 -336h-74l196 321v2h-243v52zM945 400v-40h-890v40h890zM317 -84v329h-2l-90 -39l-14 44l113 47h55v-381h-62zM670 -84v329h-2l-90 -39l-14 44l113 47h55v-381h-62z" />
    <glyph glyph-name="Japan1.9864" 
d="M425 661v1q-79 21 -79 83q0 45 44.5 72.5t113.5 27.5q74 0 111.5 -27.5t37.5 -64.5q0 -28 -19 -52.5t-61 -34.5v-2q47 -9 73.5 -33.5t26.5 -59.5q0 -49 -49.5 -79t-125.5 -30q-77 0 -124 29.5t-47 71.5q0 33 25.5 59t72.5 39zM502 798q-47 0 -70.5 -15t-23.5 -35
q0 -46 102 -61q82 11 82 59q0 21 -22 36.5t-68 15.5zM500 509q50 0 78 15.5t28 38.5q0 58 -116 73q-45 -6 -70 -24.5t-25 -43.5t28.5 -42t76.5 -17zM945 400v-40h-890v40h890zM317 -84v329h-2l-90 -39l-14 44l113 47h55v-381h-62zM670 -84v329h-2l-90 -39l-14 44l113 47h55
v-381h-62z" />
    <glyph glyph-name="Japan1.9865" 
d="M382 462v50q111 0 162 37.5t58 83.5h-1q-45 -43 -118 -43q-66 0 -109 33t-43 91q0 56 46 93.5t120 37.5q79 0 125.5 -43.5t46.5 -117.5q0 -38 -13.5 -74t-43.5 -70.5t-89.5 -56t-140.5 -21.5zM495 796q-46 0 -72.5 -22t-26.5 -58q0 -39 28.5 -59t76.5 -20q39 0 71.5 21
t32.5 43q0 40 -28.5 67.5t-81.5 27.5zM945 400v-40h-890v40h890zM317 -84v329h-2l-90 -39l-14 44l113 47h55v-381h-62zM670 -84v329h-2l-90 -39l-14 44l113 47h55v-381h-62z" />
    <glyph glyph-name="Japan1.9866" 
d="M601 462q-76 0 -121.5 50.5t-45.5 138.5q0 90 47 142t123 52q79 0 123 -49.5t44 -137.5q0 -91 -43.5 -143.5t-126.5 -52.5zM601 510h1q104 0 104 146q0 141 -103 141q-46 0 -75 -38t-29 -103q0 -70 28 -108t74 -38zM310 463v328h-2l-90 -38l-14 44l113 47h56v-381h-63z
M945 400v-40h-890v40h890zM317 -84v329h-2l-90 -39l-14 44l113 47h55v-381h-62zM670 -84v329h-2l-90 -39l-14 44l113 47h55v-381h-62z" />
    <glyph glyph-name="Japan1.9867" 
d="M945 400v-40h-890v40h890zM775 -79h-317v32l54 39q129 97 154 123q32 33 32 63q0 69 -88 69q-58 0 -106 -42l-27 43q56 50 146 50q67 0 103.5 -32.5t36.5 -78.5q0 -47 -33.5 -83.5t-128.5 -108.5l-30 -20v-2h204v-52zM481 463v328h-2l-90 -38l-14 44l113 47h56v-381h-63z
M316 -84v329h-2l-89 -39l-14 44l112 47h56v-381h-63z" />
    <glyph glyph-name="Japan1.9868" 
d="M945 400v-40h-890v40h890zM775 -79h-317v32l54 39q129 97 154 123q32 33 32 63q0 69 -88 69q-58 0 -106 -42l-27 43q56 50 146 50q67 0 103.5 -32.5t36.5 -78.5q0 -47 -33.5 -83.5t-128.5 -108.5l-30 -20v-2h204v-52zM643 838v-52h-195l-17 -81q36 3 44 3q73 0 126 -29.5
t53 -91.5q0 -58 -47.5 -91.5t-133.5 -33.5q-84 0 -128 25l17 47q42 -21 111 -21q49 0 81.5 19t32.5 53q0 74 -141 74q-38 0 -77 -7l33 186h241zM316 -84v329h-2l-89 -39l-14 44l112 47h56v-381h-63z" />
    <glyph glyph-name="Japan1.9869" 
d="M945 400v-40h-890v40h890zM775 -79h-317v32l54 39q129 97 154 123q32 33 32 63q0 69 -88 69q-58 0 -106 -42l-27 43q56 50 146 50q67 0 103.5 -32.5t36.5 -78.5q0 -47 -33.5 -83.5t-128.5 -108.5l-30 -20v-2h204v-52zM341 838h318v-39l-197 -336h-74l196 321v2h-243v52z
M316 -84v329h-2l-89 -39l-14 44l112 47h56v-381h-63z" />
    <glyph glyph-name="Japan1.9870" 
d="M945 400v-40h-890v40h890zM775 -79h-317v32l54 39q129 97 154 123q32 33 32 63q0 69 -88 69q-58 0 -106 -42l-27 43q56 50 146 50q67 0 103.5 -32.5t36.5 -78.5q0 -47 -33.5 -83.5t-128.5 -108.5l-30 -20v-2h204v-52zM310 463v328h-2l-90 -38l-14 44l113 47h56v-381h-63z
M663 463v328h-2l-90 -38l-14 44l113 47h56v-381h-63zM316 -84v329h-2l-89 -39l-14 44l112 47h56v-381h-63z" />
    <glyph glyph-name="Japan1.9871" 
d="M456 -85q-64 0 -94 51t-30 139q0 94 32.5 143.5t93.5 49.5q124 0 124 -187q0 -196 -126 -196zM456 -37q34 0 49.5 34t15.5 112q0 71 -14.5 106t-49.5 35q-63 0 -63 -141q0 -146 62 -146zM753 -85q-124 0 -124 190q0 94 32.5 143.5t93.5 49.5q123 0 123 -187
q0 -196 -125 -196zM752 -37q33 0 49.5 32t16.5 114q0 71 -14.5 106t-49.5 35q-64 0 -64 -141q0 -146 62 -146zM481 463v328h-2l-90 -38l-14 44l113 47h56v-381h-63zM945 400v-40h-890v40h890zM204 -84v329h-2l-81 -35l-13 44l103 43h53v-381h-60z" />
    <glyph glyph-name="Japan1.9872" 
d="M500 -12q-99 0 -157 102.5t-58 280.5q0 186 62.5 288.5t156.5 102.5q103 0 157 -99.5t54 -282.5q0 -192 -60 -292t-155 -100zM500 54q69 0 104 85t35 234q0 323 -138 323q-17 0 -34 -7t-37 -29.5t-34.5 -57.5t-24.5 -97t-10 -143q0 -141 35.5 -224.5t103.5 -83.5z" />
    <glyph glyph-name="Japan1.9873" 
d="M510 -9v690h-2l-136 -79l-25 56l170 101h68v-768h-75z" />
    <glyph glyph-name="Japan1.9874" 
d="M710 0h-420v49l67 81q150 181 205.5 268t55.5 163q0 58 -30.5 96.5t-90.5 38.5q-41 0 -78.5 -25t-62.5 -61l-40 48q75 104 191 104q92 0 139 -55t47 -130q0 -43 -12 -85.5t-28.5 -78t-54 -87t-69 -89.5t-92.5 -110l-46 -57v-3h319v-67z" />
    <glyph glyph-name="Japan1.9875" 
d="M343 648l-25 53q78 61 173 61t143 -54t48 -129q0 -134 -137 -182v-2q75 -13 121 -62.5t46 -123.5q0 -93 -59.5 -157t-177.5 -64q-113 0 -187 65l29 58q71 -58 158 -58q83 0 122 48.5t39 108.5q0 76 -57 113t-153 37h-38v60h38q71 0 126.5 38.5t55.5 108.5q0 56 -31 94
t-95 38q-72 0 -139 -51z" />
    <glyph glyph-name="Japan1.9876" 
d="M646 -9h-70v193h-308v50l306 525h72v-512h86v-63h-86v-193zM342 247h234v294q2 63 5 118h-2q-9 -16 -28 -53t-29 -55l-180 -301v-3z" />
    <glyph glyph-name="Japan1.9877" 
d="M695 750v-67h-250l-32 -215q20 4 55 4q91 0 162 -59.5t71 -169.5q0 -111 -70 -183t-175 -72q-99 0 -158 43l22 60q58 -39 136 -39q74 0 122.5 50.5t47.5 128.5q0 85 -51 133.5t-145 48.5q-51 0 -88 -7l45 344h308z" />
    <glyph glyph-name="Japan1.9878" 
d="M651 762l4 -68q-67 0 -121.5 -27.5t-88 -72.5t-53 -94.5t-25.5 -101.5h2q58 90 154 90q87 0 139.5 -66.5t52.5 -171.5q0 -67 -22.5 -125t-71.5 -97.5t-116 -39.5q-96 0 -158 82.5t-62 228.5q0 216 115 345q98 109 251 118zM508 47q60 0 95.5 55.5t35.5 145.5
q0 85 -37.5 133t-99.5 48q-53 0 -97 -45t-44 -101q0 -105 38 -170.5t109 -65.5z" />
    <glyph glyph-name="Japan1.9879" 
d="M293 750h413v-56l-270 -703h-76l270 689v3h-337v67z" />
    <glyph glyph-name="Japan1.9880" 
d="M418 399v3q-59 27 -88.5 72t-29.5 95q0 86 59 139.5t150 53.5q86 0 139 -52t53 -129q0 -121 -122 -179v-5q72 -29 109.5 -79.5t37.5 -115.5q0 -98 -65 -156t-162 -58q-99 0 -162 55t-63 146q0 141 144 210zM507 706q-64 0 -99.5 -38t-35.5 -91q0 -59 36 -94t106 -56
q53 20 85 58.5t32 90.5q0 54 -30.5 92t-93.5 38zM500 44q68 0 110 42.5t42 105.5q0 69 -42.5 111t-121.5 66q-66 -22 -102.5 -67t-36.5 -103q0 -65 39.5 -110t111.5 -45z" />
    <glyph glyph-name="Japan1.9881" 
d="M349 -12l-4 68q67 0 121.5 27.5t88 72.5t53 94.5t25.5 101.5h-2q-56 -89 -154 -89q-87 0 -139.5 66t-52.5 171q0 67 22.5 125t71.5 97.5t116 39.5q96 0 158 -82.5t62 -228.5q0 -116 -34 -208t-89 -146t-117 -81.5t-126 -27.5zM492 703q-60 0 -95.5 -55.5t-35.5 -145.5
q0 -85 37.5 -133.5t99.5 -48.5q54 0 97.5 46t43.5 100q0 105 -38 171t-109 66z" />
    <glyph glyph-name="Japan1.9882" 
d="M679 762l36 -19l-48 -91q48 -99 48 -272q0 -192 -60 -292t-155 -100q-85 0 -140 75l-40 -76l-35 19l51 97q-51 100 -51 268q0 186 62.5 288.5t156.5 102.5q87 0 139 -70zM385 195l216 419q-32 82 -100 82q-56 0 -98 -77.5t-42 -253.5q0 -101 24 -170zM616 556l-216 -417
q34 -85 99 -85q38 0 66 25.5t44 71.5t23 101t7 121q0 115 -23 183z" />
    <glyph glyph-name="Japan1.9883" 
d="M104 771h77v-779h-77v779zM341 771h77v-779h-77v779zM579 771h77v-779h-77v779zM818 771h77v-779h-77v779z" />
    <glyph glyph-name="Japan1.9884" 
d="M324 45q-147 0 -147 335q0 171 40 252t106 81q140 0 140 -334t-139 -334zM322 108h2q74 0 74 271q0 272 -75 272q-40 0 -60.5 -74t-20.5 -198t20 -197.5t60 -73.5zM684 45q-147 0 -147 335q0 171 40 252t106 81q140 0 140 -334t-139 -334zM682 108h2q74 0 74 271
q0 272 -75 272q-40 0 -60.5 -74t-20.5 -198t20 -197.5t60 -73.5zM188 845v-5q-105 -139 -105 -460v-1q0 -320 105 -459v-5h-48q-105 143 -105 465t105 465h48zM812 -85v5q105 139 105 460v1q0 320 -105 459v5h48q105 -143 105 -465t-105 -465h-48z" />
    </font>
</defs>
</svg>
